西西论坛

 找回密码
 立即注册
搜索

夜间小屋/夜之屋 The.Night.House.2020.1080p.BluRay.x264.DTS-HD.MA.5.1-MT 13.10GB ...

[复制链接]
admin 发表于 6 天前 | 显示全部楼层 |阅读模式
夜间小屋/夜之屋 The.Night.House.2020.1080p.BluRay.x264.DTS-HD.MA.5.1-MT 13.10GB                                                                                                                                                                                                                                                                                                                                                                                                                                                                                                                                        -->
帖子完整标题:夜间小屋/夜之屋 The.Night.House.2020.1080p.BluRay.x264.DTS-HD.MA.5.1-MT 13.10GB



22e062931b0ccd8a5dae098997c2b9e6.jpg



◎译  名 夜间小屋/夜之屋/夜屋/鬼屋
◎片  名 The Night House
◎年  代 2020
◎产  地 英国,美国
◎类  别 惊悚 / 恐怖
◎语  言 英语
◎上映日期 2020-01-24(圣丹斯电影节) / 2021-08-20(美国)
◎豆瓣评分 6.4/10 from 4833 users
◎豆瓣链接 
◎片  长 107分钟
◎导  演 大卫·布鲁克纳 David Bruckner
◎编  剧 本·柯林斯 Ben Collins / 卢克·皮厄特罗斯基 Luke Piotrowski
◎主  演 丽贝卡·豪尔 Rebecca Hall
       萨拉·古德伯格 Sarah Goldberg
       沃迪·科蒂斯·霍尔 Vondie Curtis-Hall
       伊万·乔尼凯特 Evan Jonigkeit
       斯塔西·马汀 Stacy Martin
       大卫·埃伯利斯 David Abeles
       克里斯蒂娜·杰克逊 Christina Jackson
       帕特里克·克莱因 Patrick Klein
       克里斯托·斯旺 Crystal Swann
       劳拉·奥斯丁 Laura Austin
       雅各布·加勒特·怀特 Jacob Garrett White
       萨曼莎·布克 Samantha Buck
       莉·恩斯林 Lea Enslin

◎标  签 恐怖 | 惊悚 | 美国 | 悬疑 | 灵异 | 超自然 | 2021 | 鬼屋

◎简  介

  贝丝(丽贝卡·豪尔 Rebecca Hall饰)在先生欧文(伊万·乔尼凯特 Evan Jonigkeit饰)过世后,独自住在先生生前为她所建造的湖边小屋中,虽然她努力维持正常的生活,但恶梦仍朝她袭来,她感受到屋内似乎有一些不寻常的动静,而在朋友的建议下试图从先生的遗物中 找寻答案,于是她决心解开这令人不安的秘密……
Video
ID                                       : 1
Format                                   : AVC
Format/Info                              : Advanced Video Codec
Format profile                           :
Format settings                          : CABAC / 5 Ref Frames
Format settings, CABAC                   : Yes
Format settings, Reference frames        : 5 frames
Codec ID                                 : V_MPEG4/ISO/AVC
Duration                                 : 1 h 47 min
Bit rate                                 : 14.1 Mb/s
Width                                    : 1 920 pixels
Height                                   : 800 pixels
Display aspect ratio                     : 2.40:1
Frame rate mode                          : Constant
Frame rate                               : 23.976 (24000/1001/189150) FPS
Color space                              : YUV
Chroma subsampling                       : 4:2:0
Bit depth                                : 8 bits
Scan type                                : Progressive
Bits/(Pixel*Frame)                       : 0.384
Stream size                              : 10.6 GiB (81%)
Writing library                          : x264 core 157 r2938 2b00a84  Mod
Encoding settings                        : cabac=1 / ref=5 / deblock=1:-3:-3 / analyse=0x3:0x133 / me=umh / subme=10 / psy=1 / psy_rd=1.05:0.00 / mixed_ref=1 / me_range=32 / chroma_me=1 / trellis=2 / 8x8dct=1 / cqm=0 / deadzone=21,11 / fast_pskip=0 / chroma_qp_offset=-2 / threads=12 / lookahead_threads=2 / sliced_threads=0 / nr=0 / decimate=0 / interlaced=0 / bluray_compat=0 / constrained_intra=0 / bframes=8 / b_pyramid=2 / b_adapt=2 / b_bias=0 / direct=3 / weightb=1 / open_gop=0 / weightp=2 / keyint=250 / keyint_min=24 / scenecut=40 / intra_refresh=0 / rc_lookahead=250 / rc=crf / mbtree=0 / crf=16.8 / qcomp=0.60 / qpmin=0 / qpmax=69 / qpstep=4 / vbv_maxrate=62500 / vbv_bufsize=78125 / crf_max=0.0 / nal_hrd=none / filler=0 / ip_ratio=1.30 / pb_ratio=1.20 / aq=3:0.80
Language                                 : English
Default                                  : Yes
Forced                                   : No
Color range                              : Limited
Color primaries                          : BT.709
Matrix coefficients                      : BT.709

Audio
ID                                       : 2
Format                                   : DTS XLL
Format/Info                              : Digital Theater Systems
Commercial name                          : DTS-HD Master Audio
Codec ID                                 : A_DTS
Duration                                 : 1 h 47 min
Bit rate mode                            : Variable
Bit rate                                 : 3 377 kb/s
Channel(s)                               : 6 channels
Channel layout                           : C L R Ls Rs LFE
Sampling rate                            : 48.0 kHz
Frame rate                               : 93.750 FPS (512 SPF)
Bit depth                                : 24 bits
Compression mode                         : Lossless
Stream size                              : 2.52 GiB (19%)
Language                                 : English
Default                                  : Yes
Forced                                   : No

Text #1
ID                                       : 3
Format                                   : UTF-8
Codec ID                                 : S_TEXT/UTF8
Codec ID/Info                            : UTF-8 Plain Text
Duration                                 : 1 h 39 min
Bit rate                                 : 29 b/s
Count of elements                        : 769
Stream size                              : 21.4 KiB (0%)
Title                                    : SRT
Language                                 : English
Default                                  : Yes
Forced                                   : No

Text #2
ID                                       : 4
Format                                   : PGS
Muxing mode                              : zlib
Codec ID                                 : S_HDMV/PGS
Codec ID/Info                            : Picture based subtitle format used on BDs/HD-DVDs
Duration                                 : 1 h 40 min
Bit rate                                 : 29.0 kb/s
Count of elements                        : 2342
Stream size                              : 20.9 MiB (0%)
Language                                 : English
Default                                  : No
Forced                                   : No

Menu
00:00:00.000                             : Chapter 01
00:03:41.388                             : Chapter 02
00:08:08.780                             : Chapter 03
00:15:38.271                             : Chapter 04
00:21:15.483                             : Chapter 05
00:24:03.609                             : Chapter 06
00:33:32.636                             : Chapter 07
00:38:48.117                             : Chapter 08
00:42:51.778                             : Chapter 09
00:47:48.699                             : Chapter 10
00:52:50.250                             : Chapter 11
00:56:07.239                             : Chapter 12
01:00:40.804                             : Chapter 13
01:05:21.251                             : Chapter 14
01:09:02.847                             : Chapter 15
01:14:59.453                             : Chapter 16
01:18:13.022                             : Chapter 17
01:23:28.879                             : Chapter 18
01:27:40.297                             : Chapter 19
01:32:13.862                             : Chapter 20
01:33:52.919                             : Chapter 21
01:35:02.363                             : Chapter 22
01:39:19.537                             : Chapter 23
01:41:26.580                             : Chapter 24

c8dc42686717f7166c1972cb5daab12b.png

[/url]dacfb91fbb07fe895dc04cd8c2a39102.png

[/url]



                                                                                                                                                                                                        
                                                                                                                                                                                                                                                                                                                                                                                                                                                                                                                                                                                                                                                                                                                                                                                                                                                        
adccd7e5b30ae8d29c25239cbc2c20aa.torrent (17.01 KB, 下载次数: 0)

回复

使用道具 举报

小黑屋|西西论坛

本网站所有资源来自网络,如无意中侵犯了您的权益,请发邮件至 [email protected],立即清除相关链接

GMT+8, 2021-10-20 10:49 , Processed in 0.101305 second(s), 17 queries .

Powered by Discuz! X3.2

© 2001-2013 Comsenz Inc.

快速回复 返回顶部 返回列表