西西论坛

 找回密码
 立即注册
搜索

碧波女贼 Bandits.1997.720p.BluRay.x264-GUACAMOLE 8.01GB

[复制链接]
admin 发表于 2021-11-13 09:32:06 | 显示全部楼层 |阅读模式
碧波女贼 Bandits.1997.720p.BluRay.x264-GUACAMOLE 8.01GB                                                                                                                                                                                                                                                                                                                                                                                                                                                                                                                                        -->
帖子完整标题:碧波女贼 Bandits.1997.720p.BluRay.x264-GUACAMOLE 8.01GB



5adc9e7390af975797d3f8210b5037c5.jpg



◎译  名 碧波女贼/Banditer/坏宝贝
◎片  名 Bandits
◎年  代 1997
◎产  地 德国,法国
◎类  别 剧情 / 音乐
◎语  言 德语,英语
◎上映日期 1997-07-03(德国)
◎豆瓣评分 8.6/10 from 1387 users
◎豆瓣链接 
◎片  长 110分钟
◎导  演 卡蒂娅·冯·加尼尔 Katja von Garnier
◎编  剧 乌维·威廉 Uwe Wilhelm / 卡蒂娅·冯·加尼尔 Katja von Garnier
◎主  演 卡蒂娅·里曼 Katja Riemann
       贾思敏·塔巴塔拜 Jasmin Tabatabai
       尼科莱特·克雷比茨 Nicolette Krebitz
       霍夫曼·尤塔 Jutta Hoffmann
       汉恩斯·詹尼可 Hannes Jaenicke

◎标  签 德国 | 女性 | 音乐 | 摇滚 | 犯罪 | 1997 | 女权 | 公路

◎简  介

  四名女子在狱中组了一个乐团,是她们用音乐摆脱监狱的桎梏,在一次前往警方舞会中表演的途中,她们企图逃脱,并且摇滚传达她们心灵深处最深的呐喊,在警员的严密缉捕下,班迪斯乐团一次又一次地逃过警方的围捕一路逃亡、演唱,很快就声名大噪,然而支持者的拥护,却不能换来自由,就在穷途末路之际,各自逃亡的她们又再度聚合,只为一次完美的演唱,在整个逃亡过程中,友谊的彰显,人性的考验,历历在目,全篇故事摇滚有余,亦为公路电影老调新唱。
Video
ID                                       : 1
Format                                   : AVC
Format/Info                              : Advanced Video Codec
Format profile                           : [email protected]
Format settings                          : CABAC / 8 Ref Frames
Format settings, CABAC                   : Yes
Format settings, Reference frames        : 8 frames
Codec ID                                 : V_MPEG4/ISO/AVC
Duration                                 : 1 h 49 min
Bit rate                                 : 9 760 kb/s
Width                                    : 1 280 pixels
Height                                   : 694 pixels
Display aspect ratio                     : 1.85:1
Frame rate mode                          : Constant
Frame rate                               : 23.976 (24000/1001/189150) FPS
Color space                              : YUV
Chroma subsampling                       : 4:2:0
Bit depth                                : 8 bits
Scan type                                : Progressive
Bits/(Pixel*Frame)                       : 0.458
Stream size                              : 7.49 GiB (94%)
Writing library                          : x264 core 164 r3075 66a5bc1
Encoding settings                        : cabac=1 / ref=8 / deblock=1:-3:-3 / analyse=0x3:0x133 / me=umh / subme=9 / psy=1 / psy_rd=1.00:0.00 / mixed_ref=1 / me_range=16 / chroma_me=1 / trellis=2 / 8x8dct=1 / cqm=0 / deadzone=21,11 / fast_pskip=0 / chroma_qp_offset=-2 / threads=22 / lookahead_threads=1 / sliced_threads=0 / nr=0 / decimate=1 / interlaced=0 / bluray_compat=0 / constrained_intra=0 / bframes=3 / b_pyramid=2 / b_adapt=2 / b_bias=0 / direct=3 / weightb=1 / open_gop=0 / weightp=2 / keyint=250 / keyint_min=23 / scenecut=40 / intra_refresh=0 / rc_lookahead=60 / rc=crf / mbtree=1 / crf=19.0 / qcomp=0.60 / qpmin=0 / qpmax=69 / qpstep=4 / ip_ratio=1.40 / aq=3:0.60
Default                                  : Yes
Forced                                   : No
Color range                              : Limited
Matrix coefficients                      : BT.709

Audio
ID                                       : 2
Format                                   : AC-3
Format/Info                              : Audio Coding 3
Commercial name                          : Dolby Digital
Codec ID                                 : A_AC3
Duration                                 : 1 h 49 min
Bit rate mode                            : Constant
Bit rate                                 : 640 kb/s
Channel(s)                               : 6 channels
Channel layout                           : L R C LFE Ls Rs
Sampling rate                            : 48.0 kHz
Frame rate                               : 31.250 FPS (1536 SPF)
Compression mode                         : Lossy
Stream size                              : 503 MiB (6%)
Language                                 : German
Service kind                             : Complete Main
Default                                  : Yes
Forced                                   : No

Text #1
ID                                       : 3
Format                                   : UTF-8
Codec ID                                 : S_TEXT/UTF8
Codec ID/Info                            : UTF-8 Plain Text
Duration                                 : 1 h 48 min
Bit rate                                 : 37 b/s
Count of elements                        : 898
Stream size                              : 29.7 KiB (0%)
Language                                 : English
Default                                  : Yes
Forced                                   : Yes

Text #2
ID                                       : 4
Format                                   : PGS
Muxing mode                              : zlib
Codec ID                                 : S_HDMV/PGS
Codec ID/Info                            : Picture based subtitle format used on BDs/HD-DVDs
Duration                                 : 1 h 48 min
Bit rate                                 : 24.1 kb/s
Count of elements                        : 1798
Stream size                              : 18.8 MiB (0%)
Language                                 : English
Default                                  : No
Forced                                   : No

Text #3
ID                                       : 5
Format                                   : PGS
Muxing mode                              : zlib
Codec ID                                 : S_HDMV/PGS
Codec ID/Info                            : Picture based subtitle format used on BDs/HD-DVDs
Duration                                 : 1 h 48 min
Bit rate                                 : 9 285 b/s
Count of elements                        : 655
Stream size                              : 7.19 MiB (0%)
Language                                 : English
Default                                  : No
Forced                                   : No

Text #4
ID                                       : 6
Format                                   : PGS
Muxing mode                              : zlib
Codec ID                                 : S_HDMV/PGS
Codec ID/Info                            : Picture based subtitle format used on BDs/HD-DVDs
Duration                                 : 1 h 48 min
Bit rate                                 : 30.7 kb/s
Count of elements                        : 1934
Stream size                              : 23.9 MiB (0%)
Language                                 : German
Default                                  : No
Forced                                   : No

Menu
00:00:00.000                             : en:00:00:00.000
00:06:00.151                             : en:00:06:00.151
00:07:53.682                             : en:00:07:53.682
00:11:40.325                             : en:00:11:40.325
00:17:53.155                             : en:00:17:53.155
00:24:28.842                             : en:00:24:28.842
00:29:38.443                             : en:00:29:38.443
00:34:13.093                             : en:00:34:13.093
00:39:00.088                             : en:00:39:00.088
00:42:14.574                             : en:00:42:14.574
00:47:23.007                             : en:00:47:23.007
00:52:10.169                             : en:00:52:10.169
00:57:43.418                             : en:00:57:43.418
01:02:59.943                             : en:01:02:59.943
01:07:10.068                             : en:01:07:10.068
01:12:31.764                             : en:01:12:31.764
01:17:42.449                             : en:01:17:42.449
01:22:26.775                             : en:01:22:26.775
01:27:47.095                             : en:01:27:47.095
01:32:43.308                             : en:01:32:43.308
01:37:34.098                             : en:01:37:34.098
01:46:51.363                             : en:01:46:51.363

9ba230a72ec9d50f9c450e82ce8b9203.jpg





                                                                                                                                                                                                        
                                                                                                                                                                                                                                                                                                                                                                                                                                                                                                                                                                                                                                                                                                                                                                                                                                                        
3dae2ff8a44f4deb3c80ad492eaadd65.torrent (20.69 KB, 下载次数: 0)

回复

使用道具 举报

小黑屋|西西论坛

本网站所有资源来自网络,如无意中侵犯了您的权益,请发邮件至 [email protected],立即清除相关链接

GMT+8, 2021-12-3 15:17 , Processed in 0.119228 second(s), 17 queries .

Powered by Discuz! X3.2

© 2001-2013 Comsenz Inc.

快速回复 返回顶部 返回列表