西西论坛

 找回密码
 立即注册
搜索

斗破乱世情 Legend.of.Lv.Bu.2020.CHINESE.1080p.BluRay.x264.DTS-MT 9.05GB

[复制链接]
admin 发表于 2021-10-11 19:56:43 | 显示全部楼层 |阅读模式
斗破乱世情 Legend.of.Lv.Bu.2020.CHINESE.1080p.BluRay.x264.DTS-MT 9.05GB                                                                                                                                                                                                                                                                                                                                                                                                                                                                                                                                        -->
帖子完整标题:斗破乱世情 Legend.of.Lv.Bu.2020.CHINESE.1080p.BluRay.x264.DTS-MT 9.05GB



b9fd7809fca70b3aac877df10c74da2c.jpg



◎译  名 God of War II/Legend of Lv Bu/吕布传
◎片  名 斗破乱世情
◎年  代 2020
◎产  地 中国大陆
◎类  别 动作 / 爱情 / 奇幻 / 古装
◎语  言 汉语普通话
◎上映日期 2020-05-30(中国大陆网络)
◎豆瓣评分 /10 from 0 users
◎豆瓣链接 
◎片  长 98分钟
◎导  演 蔡聪 Cong Cai
◎主  演 林柏叡 Charles
       吴大维 David Wu
       盛英豪 Yinghao Sheng
       刘露 Lu Liu

◎标  签 电影 | 爱情 | 中国 | 战争 | 大陆 | 三国 | 吕布 | 感情

◎简  介

  战乱时代,奸臣窦准当道,用毒蛊驯养药人。药人十九 在一次试药后身体异变逃走,机缘巧合下被少女蝉衣救下取名“一缕布”。二人渐生情愫,另一边窦准派人追拿十九,村民无辜被杀,蝉衣落崖,一缕布被抓并被篡改记忆......三年后,大难不死的蝉衣自荐刺杀窦准,与失去记忆并成为窦准义子的一缕布重逢。满腔恨意化为悲痛,一面是家国,一面是爱情,乱世中的他们又该何去何从......
Video
ID                                       : 1
Format                                   : AVC
Format/Info                              : Advanced Video Codec
Format profile                           :
Format settings                          : CABAC / 5 Ref Frames
Format settings, CABAC                   : Yes
Format settings, Reference frames        : 5 frames
Codec ID                                 : V_MPEG4/ISO/AVC
Duration                                 : 1 h 40 min
Bit rate                                 : 11.4 Mb/s
Width                                    : 1 920 pixels
Height                                   : 804 pixels
Display aspect ratio                     : 2.40:1
Frame rate mode                          : Constant
Frame rate                               : 24.000 FPS
Color space                              : YUV
Chroma subsampling                       : 4:2:0
Bit depth                                : 8 bits
Scan type                                : Progressive
Bits/(Pixel*Frame)                       : 0.307
Stream size                              : 7.99 GiB (88%)
Writing library                          : x264 core 157 r2938 2b00a84  Mod
Encoding settings                        : cabac=1 / ref=5 / deblock=1:-3:-3 / analyse=0x3:0x133 / me=umh / subme=10 / psy=1 / psy_rd=1.05:0.00 / mixed_ref=1 / me_range=32 / chroma_me=1 / trellis=2 / 8x8dct=1 / cqm=0 / deadzone=21,11 / fast_pskip=0 / chroma_qp_offset=-2 / threads=12 / lookahead_threads=2 / sliced_threads=0 / nr=0 / decimate=0 / interlaced=0 / bluray_compat=0 / constrained_intra=0 / bframes=8 / b_pyramid=2 / b_adapt=2 / b_bias=0 / direct=3 / weightb=1 / open_gop=0 / weightp=2 / keyint=250 / keyint_min=24 / scenecut=40 / intra_refresh=0 / rc_lookahead=250 / rc=crf / mbtree=0 / crf=16.8 / qcomp=0.60 / qpmin=0 / qpmax=69 / qpstep=4 / vbv_maxrate=62500 / vbv_bufsize=78125 / crf_max=0.0 / nal_hrd=none / filler=0 / ip_ratio=1.30 / pb_ratio=1.20 / aq=3:0.80
Language                                 : Chinese
Default                                  : Yes
Forced                                   : No
Color range                              : Limited
Color primaries                          : BT.709
Matrix coefficients                      : BT.709

Audio
ID                                       : 2
Format                                   : DTS
Format/Info                              : Digital Theater Systems
Codec ID                                 : A_DTS
Duration                                 : 1 h 40 min
Bit rate mode                            : Constant
Bit rate                                 : 1 509 kb/s
Channel(s)                               : 6 channels
Channel layout                           : C L R Ls Rs LFE
Sampling rate                            : 48.0 kHz
Frame rate                               : 93.750 FPS (512 SPF)
Bit depth                                : 16 bits
Compression mode                         : Lossy
Stream size                              : 1.06 GiB (12%)
Language                                 : Chinese
Default                                  : Yes
Forced                                   : No

Text
ID                                       : 3
Format                                   : UTF-8
Codec ID                                 : S_TEXT/UTF8
Codec ID/Info                            : UTF-8 Plain Text
Duration                                 : 1 h 37 min
Bit rate                                 : 42 b/s
Count of elements                        : 1212
Stream size                              : 30.1 KiB (0%)
Title                                    : SRT
Language                                 : English
Default                                  : Yes
Forced                                   : No

Menu
00:00:00.000                             : Chapter 01
00:08:49.917                             : Chapter 02
00:20:35.750                             : Chapter 03
00:30:57.708                             : Chapter 04
00:38:54.083                             : Chapter 05
00:47:42.042                             : Chapter 06
00:59:29.333                             : Chapter 07
01:11:53.000                             : Chapter 08
01:20:45.417                             : Chapter 09
01:27:14.083                             : Chapter 10
01:39:41.083                             : Chapter 11

da7a225c511868a962f0d7e62e44a5cd.png

[/url]5a55ae56b86568b8e6304af3e230e818.png

[/url]b33b464eb5b803fcb11c8618825aab63.png

[/url]



                                                                                                                                                                                                        
                                                                                                                                                                                                                                                                                                                                                                                                                                                                                                                                                                                                                                                                                                                                                                                                                                                        
a72d8f6855925a02db0afdd893e95c1f.torrent (23.26 KB, 下载次数: 0)

回复

使用道具 举报

小黑屋|西西论坛

本网站所有资源来自网络,如无意中侵犯了您的权益,请发邮件至 [email protected],立即清除相关链接

GMT+8, 2021-10-20 12:19 , Processed in 0.101473 second(s), 17 queries .

Powered by Discuz! X3.2

© 2001-2013 Comsenz Inc.

快速回复 返回顶部 返回列表