西西论坛

 找回密码
 立即注册
搜索

空中庭园 Hanging.Garden.2005.720p.BluRay.x264-BiPOLAR 6.78GB

[复制链接]
admin 发表于 2021-11-13 09:32:09 | 显示全部楼层 |阅读模式
空中庭园 Hanging.Garden.2005.720p.BluRay.x264-BiPOLAR 6.78GB                                                                                                                                                                                                                                                                                                                                                                                                                                                                                                                                        -->
帖子完整标题:空中庭园 Hanging.Garden.2005.720p.BluRay.x264-BiPOLAR 6.78GB



4743e0d8fc18b376f86a54281c3d2510.jpg



◎译  名 空中庭园/Hanging Garden/The Secret Garden/空中庭院
◎片  名 空中庭園
◎年  代 2005
◎产  地 日本
◎类  别 剧情
◎语  言 日语
◎上映日期 2005-10-08(日本)
◎豆瓣评分 7.4/10 from 642 users
◎豆瓣链接 
◎片  长 114分钟
◎导  演 丰田利晃 Toyoda Toshiaki
◎编  剧 角田光代 Mitsuyo Kakuta / 丰田利晃 Toyoda Toshiaki
◎主  演 铃木杏 Anne Suzuki
       板尾创路 Itsuji Itao
       国村隼 Jun Kunimura
       永山瑛太 Eita
       今宿麻美 Asami Imajuku
       胜地凉 Ryo Katsuji
       成膳任 Sonim
       永作博美 Hiromi Nagasaku
       大楠道代 Michiyo Ookusu
       千原靖史 Seiji Chihara
       涩川清彦 Kiyohiko Shibukawa

◎标  签 日本 | 日本电影 | 小泉今日子 | 丰田利晃 | 瑛太 | 伦理 | 2005 | 铃木杏

◎简  介

  居住在郊区的京桥一家奉行着一条奇怪的约定,每个家庭成员都要在亲人面前毫无隐瞒。他们的生活看起来和谐幸福,然而各自心中却都隐藏着不愿道出的秘密。长女玛娜(铃木杏 饰)一直徘徊于购物中心,在得知自己出生在情人旅馆时更烦恼不已;父亲贵史和妻子绘理子(小泉今日子 饰)过着长达5年的无性生活,他只得偷偷在外寻求安慰,表面仍要装出一脸幸福;逃学的儿子找到一个家庭教师,最终却成为了父亲的情人;制定了“无秘密”规定的绘理子精心打理家务,准备饭菜,俨然一位幸福的家庭主妇,而她的心中亦有埋藏多年的秘密。
  
  这个幸福的家庭,宛如一个空中庭园,遥不可及……
Video
ID                                       : 1
Format                                   : AVC
Format/Info                              : Advanced Video Codec
Format profile                           : [email protected]
Format settings                          : CABAC / 9 Ref Frames
Format settings, CABAC                   : Yes
Format settings, Reference frames        : 9 frames
Codec ID                                 : V_MPEG4/ISO/AVC
Duration                                 : 1 h 53 min
Bit rate                                 : 7 180 kb/s
Width                                    : 1 280 pixels
Height                                   : 704 pixels
Display aspect ratio                     : 16:9
Frame rate mode                          : Constant
Frame rate                               : 23.976 (24000/1001/189150) FPS
Color space                              : YUV
Chroma subsampling                       : 4:2:0
Bit depth                                : 8 bits
Scan type                                : Progressive
Bits/(Pixel*Frame)                       : 0.332
Stream size                              : 5.70 GiB (84%)
Writing library                          : x264 core 164 r3075 66a5bc1
Encoding settings                        : cabac=1 / ref=9 / deblock=1:-3:-3 / analyse=0x3:0x133 / me=umh / subme=10 / psy=1 / psy_rd=1.00:0.15 / mixed_ref=1 / me_range=24 / chroma_me=1 / trellis=2 / 8x8dct=1 / cqm=0 / deadzone=21,11 / fast_pskip=1 / chroma_qp_offset=-3 / threads=18 / lookahead_threads=3 / sliced_threads=0 / nr=0 / decimate=1 / interlaced=0 / bluray_compat=0 / constrained_intra=0 / bframes=8 / b_pyramid=2 / b_adapt=2 / b_bias=0 / direct=3 / weightb=1 / open_gop=0 / weightp=2 / keyint=250 / keyint_min=23 / scenecut=40 / intra_refresh=0 / rc_lookahead=60 / rc=crf / mbtree=1 / crf=17.0 / qcomp=0.60 / qpmin=0 / qpmax=69 / qpstep=4 / ip_ratio=1.40 / aq=3:0.60
Language                                 : English
Default                                  : Yes
Forced                                   : No
Color range                              : Limited
Matrix coefficients                      : BT.709

Audio #1
ID                                       : 2
Format                                   : FLAC
Format/Info                              : Free Lossless Audio Codec
Codec ID                                 : A_FLAC
Duration                                 : 1 h 53 min
Bit rate mode                            : Variable
Bit rate                                 : 1 223 kb/s
Channel(s)                               : 2 channels
Channel layout                           : L R
Sampling rate                            : 48.0 kHz
Frame rate                               : 11.719 FPS (4096 SPF)
Bit depth                                : 24 bits
Compression mode                         : Lossless
Stream size                              : 994 MiB (14%)
Writing library                          : libFLAC 1.2.1 (UTC 2007-09-17)
Language                                 : Japanese
Default                                  : Yes
Forced                                   : No

Audio #2
ID                                       : 3
Format                                   : AAC LC
Format/Info                              : Advanced Audio Codec Low Complexity
Codec ID                                 : A_AAC-2
Duration                                 : 1 h 53 min
Bit rate                                 : 91.4 kb/s
Channel(s)                               : 2 channels
Channel layout                           : L R
Sampling rate                            : 48.0 kHz
Frame rate                               : 46.875 FPS (1024 SPF)
Compression mode                         : Lossy
Delay relative to video                  : 9 ms
Stream size                              : 74.3 MiB (1%)
Title                                    : Japanese Commentary by Toshiaki Toyoda
Language                                 : Japanese
Default                                  : No
Forced                                   : No

Text #1
ID                                       : 4
Format                                   : UTF-8
Codec ID                                 : S_TEXT/UTF8
Codec ID/Info                            : UTF-8 Plain Text
Duration                                 : 1 h 53 min
Bit rate                                 : 37 b/s
Count of elements                        : 1026
Stream size                              : 31.2 KiB (0%)
Title                                    : English
Language                                 : English
Default                                  : Yes
Forced                                   : Yes

Text #2
ID                                       : 5
Format                                   : PGS
Muxing mode                              : zlib
Codec ID                                 : S_HDMV/PGS
Codec ID/Info                            : Picture based subtitle format used on BDs/HD-DVDs
Duration                                 : 1 h 53 min
Bit rate                                 : 21.1 kb/s
Count of elements                        : 2009
Stream size                              : 17.1 MiB (0%)
Title                                    : English
Language                                 : English
Default                                  : No
Forced                                   : No

Text #3
ID                                       : 6
Format                                   : UTF-8
Codec ID                                 : S_TEXT/UTF8
Codec ID/Info                            : UTF-8 Plain Text
Duration                                 : 1 h 53 min
Bit rate                                 : 43 b/s
Count of elements                        : 892
Stream size                              : 36.2 KiB (0%)
Title                                    : English Commentary by Toshiaki Toyoda
Language                                 : English
Default                                  : No
Forced                                   : No

Text #4
ID                                       : 7
Format                                   : PGS
Muxing mode                              : zlib
Codec ID                                 : S_HDMV/PGS
Codec ID/Info                            : Picture based subtitle format used on BDs/HD-DVDs
Duration                                 : 1 h 53 min
Bit rate                                 : 23.8 kb/s
Count of elements                        : 1780
Stream size                              : 19.3 MiB (0%)
Title                                    : English Commentary by Toshiaki Toyoda
Language                                 : English
Default                                  : No
Forced                                   : No

Menu
00:00:00.000                             : en:00:00:00.000
00:05:45.720                             : en:00:05:45.720
00:10:46.271                             : en:00:10:46.271
00:16:33.826                             : en:00:16:33.826
00:24:24.004                             : en:00:24:24.004
00:29:39.820                             : en:00:29:39.820
00:36:26.768                             : en:00:36:26.768
00:43:10.254                             : en:00:43:10.254
00:49:29.592                             : en:00:49:29.592
00:54:01.488                             : en:00:54:01.488
00:58:51.111                             : en:00:58:51.111
01:06:13.595                             : en:01:06:13.595
01:10:38.818                             : en:01:10:38.818
01:23:29.963                             : en:01:23:29.963
01:31:39.285                             : en:01:31:39.285
01:39:05.314                             : en:01:39:05.314

e022e0c8cd93b2f46f59ade1e8656fc8.jpg





                                                                                                                                                                                                        
                                                                                                                                                                                                                                                                                                                                                                                                                                                                                                                                                                                                                                                                                                                                                                                                                                                        
5cbaf94a70f92df97fa7fe7b9d3ed146.torrent (17.67 KB, 下载次数: 0)

回复

使用道具 举报

小黑屋|西西论坛

本网站所有资源来自网络,如无意中侵犯了您的权益,请发邮件至 [email protected],立即清除相关链接

GMT+8, 2021-12-3 15:25 , Processed in 0.118558 second(s), 17 queries .

Powered by Discuz! X3.2

© 2001-2013 Comsenz Inc.

快速回复 返回顶部 返回列表