西西论坛

 找回密码
 立即注册
搜索

亵渎/大不敬 Sacrilege.2020.720p.BluRay.x264-GETiT 2.14GB

[复制链接]
admin 发表于 2021-9-8 10:12:47 | 显示全部楼层 |阅读模式
亵渎/大不敬 Sacrilege.2020.720p.BluRay.x264-GETiT 2.14GB                                                                                                                                                                                                                                                                                                                                                                                                                                                                                                                                        -->
帖子完整标题:亵渎/大不敬 Sacrilege.2020.720p.BluRay.x264-GETiT 2.14GB



ce75af566dc62782270cb053156cc11c.jpg



◎译  名 亵渎/大不敬
◎片  名 Sacrilege
◎年  代 2020
◎产  地 英国
◎类  别 恐怖
◎语  言 英语
◎上映日期 2020-03-06(英国)
◎豆瓣评分 /10 from 0 users
◎豆瓣链接 
◎片  长 86分钟

◎标  签 巫术诅咒献祭宗教 | 邪教 | 恐怖

◎简  介

  四个朋友去一个偏远的小屋度周末。一开始的田园诗般的静修很快演变成一场生死之战,当地的邪教把她们献给了自己的女神,作为夏至的祭品
Video
ID                                       : 1
Format                                   : AVC
Format/Info                              : Advanced Video Codec
Format profile                           :
Format settings                          : CABAC / 8 Ref Frames
Format settings, CABAC                   : Yes
Format settings, Reference frames        : 8 frames
Codec ID                                 : V_MPEG4/ISO/AVC
Duration                                 : 1 h 23 min
Bit rate                                 : 3 042 kb/s
Width                                    : 1 280 pixels
Height                                   : 536 pixels
Display aspect ratio                     : 2.40:1
Frame rate mode                          : Constant
Frame rate                               : 25.000 FPS
Color space                              : YUV
Chroma subsampling                       : 4:2:0
Bit depth                                : 8 bits
Scan type                                : Progressive
Bits/(Pixel*Frame)                       : 0.177
Stream size                              : 1.77 GiB (83%)
Writing library                          : x264 core 164 r3065 ae03d92
Encoding settings                        : cabac=1 / ref=8 / deblock=1:-3:-3 / analyse=0x3:0x133 / me=umh / subme=9 / psy=1 / psy_rd=1.00:0.00 / mixed_ref=1 / me_range=16 / chroma_me=1 / trellis=2 / 8x8dct=1 / cqm=0 / deadzone=21,11 / fast_pskip=0 / chroma_qp_offset=-2 / threads=17 / lookahead_threads=1 / sliced_threads=0 / nr=0 / decimate=1 / interlaced=0 / bluray_compat=0 / constrained_intra=0 / bframes=3 / b_pyramid=2 / b_adapt=2 / b_bias=0 / direct=3 / weightb=1 / open_gop=0 / weightp=2 / keyint=250 / keyint_min=25 / scenecut=40 / intra_refresh=0 / rc_lookahead=60 / rc=crf / mbtree=1 / crf=17.0 / qcomp=0.60 / qpmin=0 / qpmax=69 / qpstep=4 / ip_ratio=1.40 / aq=3:1.00
Default                                  : Yes
Forced                                   : No
Color range                              : Limited
Matrix coefficients                      : BT.709

Audio
ID                                       : 2
Format                                   : AC-3
Format/Info                              : Audio Coding 3
Commercial name                          : Dolby Digital
Codec ID                                 : A_AC3
Duration                                 : 1 h 23 min
Bit rate mode                            : Constant
Bit rate                                 : 640 kb/s
Channel(s)                               : 6 channels
Channel layout                           : L R C LFE Ls Rs
Sampling rate                            : 48.0 kHz
Frame rate                               : 31.250 FPS (1536 SPF)
Compression mode                         : Lossy
Stream size                              : 381 MiB (17%)
Language                                 : English
Service kind                             : Complete Main
Default                                  : Yes
Forced                                   : No

Text
ID                                       : 3
Format                                   : PGS
Muxing mode                              : zlib
Codec ID                                 : S_HDMV/PGS
Codec ID/Info                            : Picture based subtitle format used on BDs/HD-DVDs
Duration                                 : 1 h 13 min
Bit rate                                 : 123 b/s
Count of elements                        : 26
Stream size                              : 66.5 KiB (0%)
Language                                 : German
Default                                  : No
Forced                                   : No

Menu
00:00:00.000                             : en:00:00:00.000
00:06:55.720                             : en:00:06:55.720
00:19:11.600                             : en:00:19:11.600
00:22:57.720                             : en:00:22:57.720
00:35:53.800                             : en:00:35:53.800
00:39:26.560                             : en:00:39:26.560
00:41:59.120                             : en:00:41:59.120
00:48:06.840                             : en:00:48:06.840
00:59:43.560                             : en:00:59:43.560

456d9ca9f441a9656b7bea0fb0d3e859.jpg





                                                                                                                                                                                                        
                                                                                                                                                                                                                                                                                                                                                                                                                                                                                                                                                                                                                                                                                                                                                                                                                                                        
b2389b0593e3c6214d553286dbc759b0.torrent (22.08 KB, 下载次数: 0)

回复

使用道具 举报

小黑屋|西西论坛

本网站所有资源来自网络,如无意中侵犯了您的权益,请发邮件至 [email protected],立即清除相关链接

GMT+8, 2021-9-19 09:58 , Processed in 0.113217 second(s), 17 queries .

Powered by Discuz! X3.2

© 2001-2013 Comsenz Inc.

快速回复 返回顶部 返回列表