西西论坛

 找回密码
 立即注册
搜索

狼人游戏/狼人附身 Werewolves.Within.2021.1080p.BluRay.x264.DTS-FGT 8.76GB ... ...

[复制链接]
admin 发表于 2021-9-11 12:27:41 | 显示全部楼层 |阅读模式
狼人游戏/狼人附身 Werewolves.Within.2021.1080p.BluRay.x264.DTS-FGT 8.76GB                                                                                                                                                                                                                                                                                                                                                                                                                                                                                                                                        -->
帖子完整标题:狼人游戏/狼人附身 Werewolves.Within.2021.1080p.BluRay.x264.DTS-FGT 8.76GB



78241374a1146cd98886fb45c25559ce.jpg



◎译  名 狼人游戏/狼人附身
◎片  名 Werewolves Within
◎年  代 2021
◎产  地 美国
◎类  别 喜剧 / 恐怖
◎语  言 英语
◎上映日期 2021-06-25(美国) / 2021-07-02(美国网络)
◎豆瓣评分 5.4/10 from 227 users
◎豆瓣链接 
◎片  长 97分钟
◎导  演 乔什·鲁本 Josh Ruben
◎编  剧 米什娜·沃尔夫 Mishna Wolff
◎主  演 山姆·理查森 Sam Richardson
       米拉娜·薇恩翠 Milana Vayntrub
       乔治·巴兹尔 George Basil
       莎拉·伯恩斯 Sarah Burns
       迈克尔·切鲁斯 Michael Chernus
       凯瑟琳·科廷 Catherine Curtin
       韦恩·杜瓦尔 Wayne Duvall
       哈维·吉兰 Harvey Guillen
       瑞贝卡·亨德森 Rebecca Henderson
       夏恩·杰克逊 Cheyenne Jackson
       麦可拉·沃金丝 Michaela Watkins
       格伦·弗莱舍尔 Glenn Fleshler
       帕特里克·M·沃尔什 Patrick M. Walsh
       安娜·克鲁格 Anni Krueger
       利兹 Ritz

◎标  签 恐怖 | 喜剧 | 美国 | 惊悚 | 2021 | 搞笑 | 育碧 | 电影

◎简  介

  故事发生在 一个小镇上。一场暴风雪把一群居民困在当地的旅店里,新到达的护林员芬恩和邮政员工塞西莉维持着秩序,他们将揭开一个神秘生物背后的真相,这个神秘生物已经开始威胁到了社区安全。
Video
ID                                       : 1
Format                                   : AVC
Format/Info                              : Advanced Video Codec
Format profile                           :
Format settings                          : CABAC / 4 Ref Frames
Format settings, CABAC                   : Yes
Format settings, Reference frames        : 4 frames
Codec ID                                 : V_MPEG4/ISO/AVC
Duration                                 : 1 h 36 min
Bit rate                                 : 11.5 Mb/s
Width                                    : 1 920 pixels
Height                                   : 804 pixels
Display aspect ratio                     : 2.40:1
Frame rate mode                          : Constant
Frame rate                               : 23.976 (24000/1001/189150) FPS
Color space                              : YUV
Chroma subsampling                       : 4:2:0
Bit depth                                : 8 bits
Scan type                                : Progressive
Bits/(Pixel*Frame)                       : 0.311
Stream size                              : 7.74 GiB (88%)
Writing library                          : x264 core 148 r2795M aaa9aa8
Encoding settings                        : cabac=1 / ref=4 / deblock=1:-2:-2 / analyse=0x3:0x113 / me=umh / subme=9 / psy=1 / psy_rd=1.00:0.15 / mixed_ref=1 / me_range=16 / chroma_me=1 / trellis=2 / 8x8dct=1 / cqm=0 / deadzone=21,11 / fast_pskip=1 / chroma_qp_offset=-3 / threads=24 / lookahead_threads=3 / sliced_threads=0 / nr=0 / decimate=1 / interlaced=0 / bluray_compat=0 / constrained_intra=0 / bframes=3 / b_pyramid=2 / b_adapt=1 / b_bias=0 / direct=3 / weightb=1 / open_gop=0 / weightp=2 / keyint=250 / keyint_min=25 / scenecut=40 / intra_refresh=0 / rc_lookahead=50 / rc=2pass / mbtree=1 / bitrate=11500 / ratetol=1.0 / qcomp=0.60 / qpmin=0 / qpmax=69 / qpstep=4 / cplxblur=20.0 / qblur=0.5 / vbv_maxrate=31250 / vbv_bufsize=31250 / nal_hrd=none / filler=0 / ip_ratio=1.40 / aq=1:1.00
Default                                  : Yes
Forced                                   : No

Audio
ID                                       : 2
Format                                   : DTS
Format/Info                              : Digital Theater Systems
Codec ID                                 : A_DTS
Duration                                 : 1 h 36 min
Bit rate mode                            : Constant
Bit rate                                 : 1 509 kb/s
Channel(s)                               : 6 channels
Channel layout                           : C L R Ls Rs LFE
Sampling rate                            : 48.0 kHz
Frame rate                               : 93.750 FPS (512 SPF)
Bit depth                                : 24 bits
Compression mode                         : Lossy
Stream size                              : 1.02 GiB (12%)
Language                                 : English
Default                                  : Yes
Forced                                   : No

Text
ID                                       : 3
Format                                   : UTF-8
Codec ID                                 : S_TEXT/UTF8
Codec ID/Info                            : UTF-8 Plain Text
Duration                                 : 1 h 27 min
Bit rate                                 : 75 b/s
Count of elements                        : 1258
Stream size                              : 48.1 KiB (0%)
Title                                    : SRT
Language                                 : English
Default                                  : Yes
Forced                                   : No

Menu
00:00:00.000                             : Chapter 01
00:09:32.489                             : Chapter 02
00:17:22.833                             : Chapter 03
00:26:47.397                             : Chapter 04
00:35:09.566                             : Chapter 05
00:42:14.824                             : Chapter 06
00:51:49.606                             : Chapter 07
01:02:56.439                             : Chapter 08
01:12:04.195                             : Chapter 09
01:19:09.036                             : Chapter 10
01:23:39.932                             : Chapter 11
01:30:17.329                             : Chapter 12

1c785d4cf60aa0ccf8489ec1dd7bbf94.png

[/url]6237e5cbe9075e0b1fe84c840c2201e8.png

[/url]1144812127d1f2f03856e9e31db500b7.png

[/url]



                                                                                                                                                                                                        
                                                                                                                                                                                                                                                                                                                                                                                                                                                                                                                                                                                                                                                                                                                                                                                                                                                        
e2792e9efcf2142bd73179fd54019d6d.torrent (22.53 KB, 下载次数: 0)

回复

使用道具 举报

小黑屋|西西论坛

本网站所有资源来自网络,如无意中侵犯了您的权益,请发邮件至 [email protected],立即清除相关链接

GMT+8, 2021-9-26 20:27 , Processed in 0.112419 second(s), 17 queries .

Powered by Discuz! X3.2

© 2001-2013 Comsenz Inc.

快速回复 返回顶部 返回列表