西西论坛

 找回密码
 立即注册
搜索

工薪女孩 Working.Girls.1986.720p.BluRay.x264-BiPOLAR 6.70GB

[复制链接]
admin 发表于 2021-9-2 14:23:24 | 显示全部楼层 |阅读模式
工薪女孩 Working.Girls.1986.720p.BluRay.x264-BiPOLAR 6.70GB                                                                                                                                                                                                                                                                                                                                                                                                                                                                                                                                        -->
帖子完整标题:工薪女孩 Working.Girls.1986.720p.BluRay.x264-BiPOLAR 6.70GB





◎译  名 工薪女孩
◎片  名 Working Girls
◎年  代 1986
◎产  地 美国
◎类  别 剧情
◎语  言 英语
◎上映日期 1986-05-28
◎豆瓣评分 /10 from 0 users
◎豆瓣链接 
◎片  长 93 分钟
◎导  演 莉兹·波登 Lizzie Borden
◎编  剧 莉兹·波登 Lizzie Borden
◎主  演 路易丝·史密斯 Louise Smith
       Ronald Willoughby Ronald Willoughby
       Dan Nutu Dan Nutu
       Janne Peters Janne Peters
       里查德·利科克 Richard Leacock
       Martin Haber Martin Haber
       阿曼达·古德温 Amanda Goodwin

◎标  签 美国 | 1980s | 剧情 | 1986 | 女性导演 | CC | 美國 | 独立电影

◎简  介

  A day in the life of several prostitutes in an upscale Manhattan whore house. The film is a stark portrayal of the women prostitutes, the male customers and the motivations of both. Watch as the madam manipulates her "girls". Watch as she answers the phone by saying "Hello John, what's new and different?" Watch as the "johns" try to manipulate the "girls". Part nudie exploitation, part sociological thesis.
Video
ID                                       : 1
Format                                   : AVC
Format/Info                              : Advanced Video Codec
Format profile                           :
Format settings                          : CABAC / 9 Ref Frames
Format settings, CABAC                   : Yes
Format settings, Reference frames        : 9 frames
Codec ID                                 : V_MPEG4/ISO/AVC
Duration                                 : 1 h 33 min
Bit rate                                 : 9 546 kb/s
Width                                    : 1 200 pixels
Height                                   : 720 pixels
Display aspect ratio                     : 5:3
Frame rate mode                          : Constant
Frame rate                               : 23.976 (24000/1001/189150) FPS
Color space                              : YUV
Chroma subsampling                       : 4:2:0
Bit depth                                : 8 bits
Scan type                                : Progressive
Bits/(Pixel*Frame)                       : 0.461
Stream size                              : 6.23 GiB (93%)
Writing library                          : x264 core 164 r3065 ae03d92
Encoding settings                        : cabac=1 / ref=9 / deblock=1:-3:-3 / analyse=0x3:0x133 / me=umh / subme=10 / psy=1 / psy_rd=1.00:0.15 / mixed_ref=1 / me_range=24 / chroma_me=1 / trellis=2 / 8x8dct=1 / cqm=0 / deadzone=21,11 / fast_pskip=1 / chroma_qp_offset=-3 / threads=18 / lookahead_threads=3 / sliced_threads=0 / nr=0 / decimate=1 / interlaced=0 / bluray_compat=0 / constrained_intra=0 / bframes=8 / b_pyramid=2 / b_adapt=2 / b_bias=0 / direct=3 / weightb=1 / open_gop=0 / weightp=2 / keyint=250 / keyint_min=23 / scenecut=40 / intra_refresh=0 / rc_lookahead=60 / rc=crf / mbtree=1 / crf=20.0 / qcomp=0.60 / qpmin=0 / qpmax=69 / qpstep=4 / ip_ratio=1.40 / aq=3:0.50
Language                                 : English
Default                                  : Yes
Forced                                   : No
Color range                              : Limited
Matrix coefficients                      : BT.709

Audio #1
ID                                       : 2
Format                                   : FLAC
Format/Info                              : Free Lossless Audio Codec
Codec ID                                 : A_FLAC
Duration                                 : 1 h 33 min
Bit rate mode                            : Variable
Bit rate                                 : 640 kb/s
Channel(s)                               : 1 channel
Channel layout                           : C
Sampling rate                            : 48.0 kHz
Frame rate                               : 11.719 FPS (4096 SPF)
Bit depth                                : 24 bits
Compression mode                         : Lossless
Stream size                              : 428 MiB (6%)
Writing library                          : libFLAC 1.2.1 (UTC 2007-09-17)
Language                                 : English
Default                                  : Yes
Forced                                   : No

Audio #2
ID                                       : 3
Format                                   : AAC LC
Format/Info                              : Advanced Audio Codec Low Complexity
Codec ID                                 : A_AAC-2
Duration                                 : 1 h 33 min
Bit rate                                 : 63.0 kb/s
Channel(s)                               : 1 channel
Channel layout                           : C
Sampling rate                            : 48.0 kHz
Frame rate                               : 46.875 FPS (1024 SPF)
Compression mode                         : Lossy
Delay relative to video                  : 9 ms
Stream size                              : 42.2 MiB (1%)
Title                                    : English Commentary by Lizzie Borden, Judy Irola, and Amanda Goodwin
Language                                 : English
Default                                  : No
Forced                                   : No

Text #1
ID                                       : 4
Format                                   : UTF-8
Codec ID                                 : S_TEXT/UTF8
Codec ID/Info                            : UTF-8 Plain Text
Duration                                 : 1 h 27 min
Bit rate                                 : 82 b/s
Count of elements                        : 1382
Stream size                              : 53.1 KiB (0%)
Title                                    : English
Language                                 : English
Default                                  : No
Forced                                   : No

Text #2
ID                                       : 5
Format                                   : UTF-8
Codec ID                                 : S_TEXT/UTF8
Codec ID/Info                            : UTF-8 Plain Text
Duration                                 : 1 h 28 min
Bit rate                                 : 89 b/s
Count of elements                        : 1465
Stream size                              : 58.3 KiB (0%)
Title                                    : English SDH
Language                                 : English
Default                                  : No
Forced                                   : No

Text #3
ID                                       : 6
Format                                   : PGS
Muxing mode                              : zlib
Codec ID                                 : S_HDMV/PGS
Codec ID/Info                            : Picture based subtitle format used on BDs/HD-DVDs
Duration                                 : 1 h 28 min
Bit rate                                 : 12.4 kb/s
Count of elements                        : 2930
Stream size                              : 7.91 MiB (0%)
Title                                    : English SDH
Language                                 : English
Default                                  : No
Forced                                   : No

Menu
00:00:00.000                             : en:00:00:00.000
00:08:06.611                             : en:00:08:06.611
00:14:52.934                             : en:00:14:52.934
00:21:44.094                             : en:00:21:44.094
00:25:01.458                             : en:00:25:01.458
00:26:36.470                             : en:00:26:36.470
00:34:30.110                             : en:00:34:30.110
00:41:00.792                             : en:00:41:00.792
00:44:44.307                             : en:00:44:44.307
00:49:10.072                             : en:00:49:10.072
00:53:53.313                             : en:00:53:53.313
00:59:11.882                             : en:00:59:11.882
01:03:25.677                             : en:01:03:25.677
01:08:09.752                             : en:01:08:09.752
01:11:03.509                             : en:01:11:03.509
01:17:03.494                             : en:01:17:03.494
01:25:04.057                             : en:01:25:04.057





                                                                                                                                                                                                        
                                                                                                                                                                                                                                                                                                                                                                                                                                                                                                                                                                                                                                                                                                                                                                                                                                                        
7f9e732a2ceadb1e2f256bf41512415a.torrent (17.48 KB, 下载次数: 0)

回复

使用道具 举报

小黑屋|西西论坛

本网站所有资源来自网络,如无意中侵犯了您的权益,请发邮件至 [email protected],立即清除相关链接

GMT+8, 2021-9-19 10:31 , Processed in 0.112351 second(s), 17 queries .

Powered by Discuz! X3.2

© 2001-2013 Comsenz Inc.

快速回复 返回顶部 返回列表