西西论坛

 找回密码
 立即注册
搜索

[BD-4K] 半血缘兄弟 Half.Brothers.2020.2160p.AMZN.WEB-DL.x265.10bit.HDR10Plus.DTS-HD.MA.5 ...

[复制链接]
电影首发 发表于 2021-4-19 08:02:05 | 显示全部楼层 |阅读模式
-->
帖子完整标题:半血缘兄弟 Half.Brothers.2020.2160p.AMZN.WEB-DL.x265.10bit.HDR10Plus.DTS-HD.MA.5.1-SWTYBLZ 12.63GB



[/url]

◎译  名 半血缘兄弟/Half Brothers
◎片  名 Half Brothers
◎年  代 2020
◎产  地 墨西哥,美国
◎类  别 喜剧
◎语  言 西班牙语
◎上映日期 2020-12-04(美国)
◎IMDb评分  6/10 from 1056 users
◎  
◎豆瓣评分 6.0/10 from 260 users
◎ 
◎片  长 96分钟
◎导  演 卢克·格林菲德 Luke Greenfield
◎编  剧 阿利·勒鲁伊 Ali LeRoi / 爱德得·西斯内罗斯 Eduardo Cisneros / 杰森·舒曼 Jason Shuman
◎主  演 路易斯·赫拉尔多·门德斯 Luis Gerardo Méndez
       何塞·祖尼加 José Zú?iga
       康纳·戴尔·里奥 Connor Del Rio
       文森特·斯帕诺 Vincent Spano
       希拉·斯科特·阿斯托夫 Shira Scott Astrof
       哈耶斯·哈格罗夫 Hayes Hargrove
       阿尔玛·西斯内罗斯 Alma Sisneros
       朱万达斯·坎迪斯 Jwaundace Candece
       比阿特丽丝·埃尔南德斯 Beatrice Hernandez
       特蕾莎·德谢尔 Teresa Decher
       曼尼·鲁比奥 Manny Rubio
       斯蒂芬妮·希尔 Stephanie Hill

◎标  签 公路 | 喜剧 | 墨西哥 | 家庭 | 亲情 | 美国 | 搞笑 | 2020

◎简  介

  影片讲述两个同父异母的兄弟揭开垂死父亲的秘密时,他们彼此的关系也受到了考验。
Video
ID                                       : 1
Format                                   : HEVC
Format/Info                              : High Efficiency Video Coding
Format profile                           : Main @Main
HDR format                               : SMPTE ST 2094 App 4, Version 1, HDR10+ Profile B compatible
Codec ID                                 : V_MPEGH/ISO/HEVC
Duration                                 : 1 h 36 min
Bit rate                                 : 14.9 Mb/s
Width                                    : 3 840 pixels
Height                                   : 1 600 pixels
Display aspect ratio                     : 2.40:1
Frame rate mode                          : Constant
Frame rate                               : 23.976 (24000/1001/189150) FPS
Color space                              : YUV
Chroma subsampling                       : 4:2:0
Bit depth                                : 10 bits
Bits/(Pixel*Frame)                       : 0.101
Stream size                              : 10.1 GiB (80%)
Language                                 : English
Default                                  : Yes
Forced                                   : No
Color range                              : Limited
Color primaries                          : BT.2020
Transfer characteristics                 : PQ
Matrix coefficients                      : BT.2020 non-constant
Mastering display color primaries        : Display P3
Mastering display luminance              : min: 0.0050 cd/m2, max: 1000 cd/m2
Maximum Content Light Level              : 1000 cd/m2
Maximum Frame-Average Light Level        : 147 cd/m2

Audio #1
ID                                       : 2
ID in the original source medium         : 4352 (0x1100)
Format                                   : DTS XLL
Format/Info                              : Digital Theater Systems
Commercial name                          : DTS-HD Master Audio
Codec ID                                 : A_DTS
Duration                                 : 1 h 35 min
Bit rate mode                            : Variable
Bit rate                                 : 3 200 kb/s
Channel(s)                               : 6 channels
Channel layout                           : C L R Ls Rs LFE
Sampling rate                            : 48.0 kHz
Frame rate                               : 93.750 FPS (512 SPF)
Bit depth                                : 24 bits
Compression mode                         : Lossless
Delay relative to video                  : 24 s 680 ms
Stream size                              : 2.15 GiB (17%)
Title                                    : DTS-HD MA 5.1
Language                                 : English
Default                                  : Yes
Forced                                   : No
Original source medium                   : Blu-ray

Audio #2
ID                                       : 3
Format                                   : E-AC-3
Format/Info                              : Enhanced AC-3
Commercial name                          : Dolby Digital Plus
Codec ID                                 : A_EAC3
Duration                                 : 1 h 36 min
Bit rate mode                            : Constant
Bit rate                                 : 640 kb/s
Channel(s)                               : 6 channels
Channel layout                           : L R C LFE Ls Rs
Sampling rate                            : 48.0 kHz
Frame rate                               : 31.250 FPS (1536 SPF)
Compression mode                         : Lossy
Stream size                              : 441 MiB (3%)
Title                                    : DDP 5.1
Language                                 : English
Service kind                             : Complete Main
Default                                  : No
Forced                                   : No

Text
ID                                       : 4
Format                                   : UTF-8
Codec ID                                 : S_TEXT/UTF8
Codec ID/Info                            : UTF-8 Plain Text
Duration                                 : 1 h 35 min
Bit rate                                 : 69 b/s
Count of elements                        : 1709
Stream size                              : 48.7 KiB (0%)
Title                                    : English
Language                                 : English
Default                                  : Yes
Forced                                   : No

Menu
00:00:00.000                             : en:Chapter 01
00:05:47.472                             : en:Chapter 02
00:09:08.548                             : en:Chapter 03
00:13:32.019                             : en:Chapter 04
00:16:08.133                             : en:Chapter 05
00:20:23.931                             : en:Chapter 06
00:24:32.721                             : en:Chapter 07
00:30:16.606                             : en:Chapter 08
00:32:55.056                             : en:Chapter 09
00:40:37.852                             : en:Chapter 10
00:44:17.988                             : en:Chapter 11
00:46:43.842                             : en:Chapter 12
00:53:51.228                             : en:Chapter 13
00:59:59.637                             : en:Chapter 14
01:06:02.625                             : en:Chapter 15
01:10:14.627                             : en:Chapter 16
01:14:45.522                             : en:Chapter 17
01:18:21.154                             : en:Chapter 18
01:25:56.484                             : en:Chapter 19
01:31:21.559                             : en:Chapter 20




                                                                                                                                                                                                        
                                                                                                                                                                                                                                                                                                                                                                                                                                                                                                                                                                                                                                                                                                                                                                                                                                                        
a6be8dcfd6cc2bb99f747668b72359f3.zip (63.95 KB, 下载次数: 0)

回复

使用道具 举报

小黑屋|西西论坛

本网站所有资源来自网络,如无意中侵犯了您的权益,请发邮件至 [email protected],立即清除相关链接

GMT+8, 2021-9-26 20:56 , Processed in 0.122633 second(s), 17 queries .

Powered by Discuz! X3.2

© 2001-2013 Comsenz Inc.

快速回复 返回顶部 返回列表