西西论坛

 找回密码
 立即注册
搜索

东邪闪魂/闪灵教主 Im.Flash.2012.720p.BluRay.x264-BiPOLAR 4.89GB

[复制链接]
admin 发表于 2021-11-13 09:32:00 | 显示全部楼层 |阅读模式
东邪闪魂/闪灵教主 Im.Flash.2012.720p.BluRay.x264-BiPOLAR 4.89GB                                                                                                                                                                                                                                                                                                                                                                                                                                                                                                                                        -->
帖子完整标题:东邪闪魂/闪灵教主 Im.Flash.2012.720p.BluRay.x264-BiPOLAR 4.89GB



c726779cad8a46b26abd178fded874aa.jpg



◎译  名 东邪闪魂/闪灵教主(台)
◎片  名 I'M FLASH!
◎年  代 2012
◎产  地 日本
◎类  别 
◎语  言 日语
◎上映日期 2012-09-01
◎豆瓣评分 5.7/10 from 669 users
◎豆瓣链接 
◎片  长 91分钟
◎导  演 丰田利晃 Toyoda Toshiaki
◎编  剧 丰田利晃 Toyoda Toshiaki
◎主  演 藤原龙也 Tatsuya Fujiwara
       松田龙平 Ry?hei Matsuda
       水原希子 Kiko Mizuhara
       永山绚斗 Kento Nagayama
       板尾创路 Itsuji Itao
       北村有起哉 Yukiya Kitamura
       柄本佑 Tasuku Emoto
       中村达也 Tatsuya Nakamura
       大楠道代 Michiyo Ookusu
       涩川清彦 Kiyohiko Shibukawa

◎标  签 日本电影 | 日本 | 水原希子 | 藤原龙也 | 松田龍平 | 松田龙平 | 藤原竜也 | 2012

◎简  介

  新兴宗教团体“美丽人生(Life is Beautiful)”,第三代教主吉川路易(藤原龙也 饰)风流倜傥,言辞极具煽动性。在一个醉酒的夜晚,路易搭乘酒吧结识的神秘美女流美(水原希子 饰)的汽车,对方的身份却让他着实一惊。未久,飞驰的跑车在某隧道内与一辆机车惨烈相撞。对方当场死亡,流美重伤昏迷不醒,路易则只受轻伤,逃过一劫。在此之后,教主的姐姐樱(原田麻由 饰)安排弟弟去南方某个小岛暂避风头,并雇用新野(松田龙平 饰)等三名保镖护卫路易的安全。与死神擦肩而过的路易切身感到生死无常,他试图解散教团,却遭到以母亲(大楠道代 饰)为首的一众高层强烈反对。
  
  风景如画的海边,死亡的气息肆意蔓延……
Video
ID                                       : 1
Format                                   : AVC
Format/Info                              : Advanced Video Codec
Format profile                           : [email protected]
Format settings                          : CABAC / 12 Ref Frames
Format settings, CABAC                   : Yes
Format settings, Reference frames        : 12 frames
Codec ID                                 : V_MPEG4/ISO/AVC
Duration                                 : 1 h 31 min
Bit rate                                 : 6 101 kb/s
Width                                    : 1 280 pixels
Height                                   : 534 pixels
Display aspect ratio                     : 2.40:1
Frame rate mode                          : Constant
Frame rate                               : 23.976 (24000/1001/189150) FPS
Color space                              : YUV
Chroma subsampling                       : 4:2:0
Bit depth                                : 8 bits
Scan type                                : Progressive
Bits/(Pixel*Frame)                       : 0.372
Stream size                              : 3.91 GiB (80%)
Writing library                          : x264 core 164 r3075 66a5bc1
Encoding settings                        : cabac=1 / ref=12 / deblock=1:-3:-3 / analyse=0x3:0x133 / me=umh / subme=10 / psy=1 / psy_rd=1.00:0.15 / mixed_ref=1 / me_range=24 / chroma_me=1 / trellis=2 / 8x8dct=1 / cqm=0 / deadzone=21,11 / fast_pskip=1 / chroma_qp_offset=-3 / threads=17 / lookahead_threads=2 / sliced_threads=0 / nr=0 / decimate=1 / interlaced=0 / bluray_compat=0 / constrained_intra=0 / bframes=8 / b_pyramid=2 / b_adapt=2 / b_bias=0 / direct=3 / weightb=1 / open_gop=0 / weightp=2 / keyint=250 / keyint_min=23 / scenecut=40 / intra_refresh=0 / rc_lookahead=60 / rc=crf / mbtree=1 / crf=15.0 / qcomp=0.60 / qpmin=0 / qpmax=69 / qpstep=4 / ip_ratio=1.40 / aq=3:0.60
Language                                 : English
Default                                  : Yes
Forced                                   : No
Color range                              : Limited
Matrix coefficients                      : BT.709

Audio #1
ID                                       : 2
Format                                   : FLAC
Format/Info                              : Free Lossless Audio Codec
Codec ID                                 : A_FLAC
Duration                                 : 1 h 31 min
Bit rate mode                            : Variable
Bit rate                                 : 1 369 kb/s
Channel(s)                               : 2 channels
Channel layout                           : L R
Sampling rate                            : 48.0 kHz
Frame rate                               : 11.719 FPS (4096 SPF)
Bit depth                                : 24 bits
Compression mode                         : Lossless
Stream size                              : 899 MiB (18%)
Writing library                          : libFLAC 1.2.1 (UTC 2007-09-17)
Language                                 : Japanese
Default                                  : Yes
Forced                                   : No

Audio #2
ID                                       : 3
Format                                   : AAC LC
Format/Info                              : Advanced Audio Codec Low Complexity
Codec ID                                 : A_AAC-2
Duration                                 : 1 h 31 min
Bit rate                                 : 136 kb/s
Channel(s)                               : 2 channels
Channel layout                           : L R
Sampling rate                            : 48.0 kHz
Frame rate                               : 46.875 FPS (1024 SPF)
Compression mode                         : Lossy
Delay relative to video                  : 9 ms
Stream size                              : 89.5 MiB (2%)
Title                                    : English Commentary by Tom Mes
Language                                 : English
Default                                  : No
Forced                                   : No

Text #1
ID                                       : 4
Format                                   : UTF-8
Codec ID                                 : S_TEXT/UTF8
Codec ID/Info                            : UTF-8 Plain Text
Duration                                 : 1 h 29 min
Bit rate                                 : 27 b/s
Count of elements                        : 568
Stream size                              : 18.2 KiB (0%)
Title                                    : English
Language                                 : English
Default                                  : Yes
Forced                                   : Yes

Text #2
ID                                       : 5
Format                                   : PGS
Muxing mode                              : zlib
Codec ID                                 : S_HDMV/PGS
Codec ID/Info                            : Picture based subtitle format used on BDs/HD-DVDs
Duration                                 : 1 h 29 min
Bit rate                                 : 15.2 kb/s
Count of elements                        : 1127
Stream size                              : 9.67 MiB (0%)
Title                                    : English
Language                                 : English
Default                                  : No
Forced                                   : No

Menu
00:00:00.000                             : en:00:00:00.000
00:06:12.539                             : en:00:06:12.539
00:11:45.204                             : en:00:11:45.204
00:17:25.127                             : en:00:17:25.127
00:24:16.622                             : en:00:24:16.622
00:27:10.587                             : en:00:27:10.587
00:30:09.307                             : en:00:30:09.307
00:33:24.669                             : en:00:33:24.669
00:37:54.564                             : en:00:37:54.564
00:45:05.286                             : en:00:45:05.286
00:48:16.060                             : en:00:48:16.060
00:54:17.087                             : en:00:54:17.087
00:56:39.354                             : en:00:56:39.354
01:00:25.664                             : en:01:00:25.664
01:04:04.674                             : en:01:04:04.674
01:07:31.881                             : en:01:07:31.881
01:09:17.820                             : en:01:09:17.820
01:16:54.360                             : en:01:16:54.360
01:24:09.836                             : en:01:24:09.836
01:27:18.775                             : en:01:27:18.775

819d5d5bdc8e1307d8b0a391807a3754.jpg





                                                                                                                                                                                                        
                                                                                                                                                                                                                                                                                                                                                                                                                                                                                                                                                                                                                                                                                                                                                                                                                                                        
fff4bb0b47d9fbc387206d238984adb1.torrent (25.16 KB, 下载次数: 0)

回复

使用道具 举报

小黑屋|西西论坛

本网站所有资源来自网络,如无意中侵犯了您的权益,请发邮件至 [email protected],立即清除相关链接

GMT+8, 2021-12-3 14:56 , Processed in 0.125162 second(s), 17 queries .

Powered by Discuz! X3.2

© 2001-2013 Comsenz Inc.

快速回复 返回顶部 返回列表