西西论坛

 找回密码
 立即注册
搜索

[4K-原盘] 太空炮弹/宇宙奇航 Spaceballs.1987.2160p.BluRay.REMUX.HEVC.DTS-HD.MA.5.1-FGT 49.4 ...

[复制链接]
电影首发 发表于 2021-4-10 16:03:55 | 显示全部楼层 |阅读模式
-->
帖子完整标题:太空炮弹/宇宙奇航 Spaceballs.1987.2160p.BluRay.REMUX.HEVC.DTS-HD.MA.5.1-FGT 49.42GB



[/url]

◎译  名 太空炮弹/宇宙奇航/星战外传之白痴星球/星战歪传之太空炮弹
◎片  名 Spaceballs
◎年  代 1987
◎产  地 美国
◎类  别 喜剧 / 科幻 / 冒险
◎语  言 英语
◎上映日期 1987-06-24
◎IMDb评分  7.1/10 from 173219 users
◎  
◎豆瓣评分 6.8/10 from 975 users
◎ 
◎片  长 96 分钟
◎导  演 梅尔·布鲁克斯 Mel Brooks
◎编  剧 梅尔·布鲁克斯 Mel Brooks / 托马斯·米汉 Thomas Meehan
◎主  演 梅尔·布鲁克斯 Mel Brooks
       约翰·坎迪 John Candy
       里克·莫拉尼斯 Rick Moranis
       比尔·普尔曼 Bill Pullman
       达芙妮·祖尼加 Daphne Zuniga
       鲁迪·德卢卡 Rudy De Luca
       托马斯·米汉 Thomas Meehan

◎标  签 喜剧 | 科幻 | 美国 | 恶搞 | 1987 | 美国电影 | MelBrooks | 1980s

◎简  介

  在很久以前的遥远星系中,“炮弹一族”因其领袖的愚蠢,耗尽了自己星球的大气,于是计划夺取邻近的朱迪亚星球的纯净空气。在朱迪亚星球维斯帕公主(达芙妮?祖尼加 Daphne Zuniga 饰)婚礼前夕,炮弹族总统斯古(梅尔?布鲁克斯 Mel Brooks 饰)派出黑帽子大人率领巨型战舰绑架维斯帕,以威胁朱迪亚方面就范。维斯帕拒绝没有爱情的婚姻选择逃婚,却陷入了炮弹族巨舰的追击,这时,因为欠高利贷在太空中奔逃的太空牛仔“孤星”(比尔?普尔曼 Bill Pullman 饰)与半人半狗的搭档巴夫受朱迪亚国王所托,出面将维斯帕救走。炮弹族岂肯善罢甘休,正邪势力在太空上演了又一场激战……
Video
ID                                       : 1
ID in the original source medium         : 4113 (0x1011)
Format                                   : HEVC
Format/Info                              : High Efficiency Video Coding
Format profile                           : Main @High
HDR format                               : SMPTE ST 2086, HDR10 compatible
Codec ID                                 : V_MPEGH/ISO/HEVC
Duration                                 : 1 h 36 min
Bit rate                                 : 66.9 Mb/s
Width                                    : 3 840 pixels
Height                                   : 2 160 pixels
Display aspect ratio                     : 16:9
Frame rate mode                          : Constant
Frame rate                               : 23.976 (24000/1001/189150) FPS
Color space                              : YUV
Chroma subsampling                       : 4:2:0 (Type 2)
Bit depth                                : 10 bits
Bits/(Pixel*Frame)                       : 0.336
Stream size                              : 44.9 GiB (91%)
Language                                 : English
Default                                  : No
Forced                                   : No
Color range                              : Limited
Color primaries                          : BT.2020
Transfer characteristics                 : PQ
Matrix coefficients                      : BT.2020 non-constant
Mastering display color primaries        : Display P3
Mastering display luminance              : min: 0.0050 cd/m2, max: 4000 cd/m2
Maximum Content Light Level              : 9972 cd/m2
Maximum Frame-Average Light Level        : 589 cd/m2
Original source medium                   : Blu-ray

Audio #1
ID                                       : 2
ID in the original source medium         : 4352 (0x1100)
Format                                   : DTS XLL
Format/Info                              : Digital Theater Systems
Commercial name                          : DTS-HD Master Audio
Codec ID                                 : A_DTS
Duration                                 : 1 h 36 min
Bit rate mode                            : Variable
Bit rate                                 : 3 814 kb/s
Channel(s)                               : 6 channels
Channel layout                           : C L R Ls Rs LFE
Sampling rate                            : 48.0 kHz
Frame rate                               : 93.750 FPS (512 SPF)
Bit depth                                : 24 bits
Compression mode                         : Lossless
Stream size                              : 2.56 GiB (5%)
Title                                    : DTS-HD MA 5.1
Language                                 : English
Default                                  : Yes
Forced                                   : No
Original source medium                   : Blu-ray

Audio #2
ID                                       : 3
Format                                   : AC-3
Format/Info                              : Audio Coding 3
Commercial name                          : Dolby Digital
Codec ID                                 : A_AC3
Duration                                 : 1 h 36 min
Bit rate mode                            : Constant
Bit rate                                 : 640 kb/s
Channel(s)                               : 6 channels
Channel layout                           : L R C LFE Ls Rs
Sampling rate                            : 48.0 kHz
Frame rate                               : 31.250 FPS (1536 SPF)
Compression mode                         : Lossy
Stream size                              : 440 MiB (1%)
Title                                    : DD 5.1
Language                                 : English
Service kind                             : Complete Main
Default                                  : No
Forced                                   : No

Audio #3
ID                                       : 4
ID in the original source medium         : 4353 (0x1101)
Format                                   : DTS XLL
Format/Info                              : Digital Theater Systems
Commercial name                          : DTS-HD Master Audio
Codec ID                                 : A_DTS
Duration                                 : 1 h 36 min
Bit rate mode                            : Variable
Bit rate                                 : 2 000 kb/s
Channel(s)                               : 2 channels
Channel layout                           : L R
Sampling rate                            : 48.0 kHz
Frame rate                               : 93.750 FPS (512 SPF)
Bit depth                                : 24 bits
Compression mode                         : Lossless
Stream size                              : 1.34 GiB (3%)
Title                                    : DTS-HD MA 2.0
Language                                 : English
Default                                  : No
Forced                                   : No
Original source medium                   : Blu-ray

Audio #4
ID                                       : 5
ID in the original source medium         : 4354 (0x1102)
Format                                   : AC-3
Format/Info                              : Audio Coding 3
Commercial name                          : Dolby Digital
Codec ID                                 : A_AC3
Duration                                 : 1 h 36 min
Bit rate mode                            : Constant
Bit rate                                 : 192 kb/s
Channel(s)                               : 2 channels
Channel layout                           : L R
Sampling rate                            : 48.0 kHz
Frame rate                               : 31.250 FPS (1536 SPF)
Compression mode                         : Lossy
Stream size                              : 132 MiB (0%)
Title                                    : DD 2.0
Language                                 : English
Service kind                             : Complete Main
Default                                  : No
Forced                                   : No
Original source medium                   : Blu-ray

Text #1
ID                                       : 6
Format                                   : UTF-8
Codec ID                                 : S_TEXT/UTF8
Codec ID/Info                            : UTF-8 Plain Text
Duration                                 : 1 h 26 min
Bit rate                                 : 58 b/s
Count of elements                        : 1168
Stream size                              : 37.5 KiB (0%)
Title                                    : English-SRT
Language                                 : English
Default                                  : Yes
Forced                                   : No

Text #2
ID                                       : 7
ID in the original source medium         : 4768 (0x12A0)
Format                                   : PGS
Muxing mode                              : zlib
Codec ID                                 : S_HDMV/PGS
Codec ID/Info                            : Picture based subtitle format used on BDs/HD-DVDs
Duration                                 : 1 h 26 min
Bit rate                                 : 37.2 kb/s
Count of elements                        : 2336
Stream size                              : 23.1 MiB (0%)
Title                                    : English-PGS
Language                                 : English
Default                                  : No
Forced                                   : No
Original source medium                   : Blu-ray

Menu
00:00:00.000                             : en:Chapter 01
00:09:37.577                             : en:Chapter 02
00:18:24.103                             : en:Chapter 03
00:26:49.608                             : en:Chapter 04
00:34:55.093                             : en:Chapter 05
00:42:07.525                             : en:Chapter 06
00:50:55.052                             : en:Chapter 07
00:58:24.501                             : en:Chapter 08
01:08:50.126                             : en:Chapter 09
01:16:30.586                             : en:Chapter 10
01:24:29.064                             : en:Chapter 11
01:30:55.450                             : en:Chapter 12
01:36:11.766                             : en:Chapter 13




                                                                                                                                                                                                        
                                                                                                                                                                                                                                                                                                                                                                                                                                                                                                                                                                                                                                                                                                                                                                                                                                                        
fe18040cbcd0f54bc7f24dab7e76c01b.zip (124.25 KB, 下载次数: 0)

回复

使用道具 举报

小黑屋|西西论坛

本网站所有资源来自网络,如无意中侵犯了您的权益,请发邮件至 [email protected],立即清除相关链接

GMT+8, 2021-9-26 21:14 , Processed in 0.128936 second(s), 17 queries .

Powered by Discuz! X3.2

© 2001-2013 Comsenz Inc.

快速回复 返回顶部 返回列表