西西论坛

 找回密码
 立即注册
搜索

[我没谈完的那场恋爱][纯净版][BT下载][WEB-MKV/10.85GB][国语音轨][4K-2160P][爱情,. ...

[复制链接]
admin 发表于 7 天前 | 显示全部楼层 |阅读模式
-->d472b607fe2fa8aba4797cee37833b95.jpg



◎译  名 我没谈完的那场恋爱 / 不说再见
◎年  代 2021
◎产  地 中国大陆
◎类  别 爱情
◎语  言 汉语普通话
◎上映日期 2021-06-25(中国大陆)
◎片  长 97分钟
◎导  演 赵宇 Yu Zhao (id:1320916)
◎编  剧 赵宇 Yu Zhao (id:1320916)
       陈梦怡  (id:1457200)
       李绚彦 Xuanyan Li (id:1335262)
◎演  员 于文文 Kelly Yu (id:1342252)
       宋宁峰 Ningfeng Song (id:1313368)
       刘琦 Mulligan liu (id:1398572)
       李博 Bo Li (id:1456618)
       刘奕 Yi Liu (id:1335268)
       尹菲 Fei Yin (id:1350802)
       曹力 Li Cao (id:1274714)
       佘南南 Nannan She (id:1342105)
       殷成阳 Chengyang Yin (id:1408013)

◎标  签 爱情 / 遗憾 / 音乐 / 梦想 / 国产 / 2021 / 渐冻症 / 怀旧

◎简  介
  本片讲述了两个千差万别却同样迷茫的年轻音乐人,一个是多年打拼,事业毫无起色,又屡遭生活暴击的和声歌手珊妮,一个是身患重病,隐姓埋名等待死亡降临的前摇滚乐手董东,对生命感到绝望的二人在自我了断时相遇......自杀计划流产,他们的生活也因彼此的出现发生改变。                                    
                                另外一个时空的故事,从珊妮意外发现的一本1970年代的日记中铺陈开来,一段没有下文的悲伤爱情竟然在珊妮的努力下尘埃落定。跟音乐、爱情和人生有关的种种,让珊妮与董东的相遇愈发神奇。千丝万缕中,是否每一种爱都能开花结果? 他们能否找到继续爱这个世界的理由?
General
Unique ID                                : 105042833912727821925388105366892329440 (0x4F068390C20C260615696ABA237E39E0)
Complete name                            : 我没谈完的那场恋爱
Format                                   : Matroska
Format version                           : Version 4
File size                                : 10.8 GiB
Duration                                 : 1 h 37 min
Overall bit rate                         : 16.0 Mb/s
Encoded date                             : UTC 2021-07-18 09:02:09
Writing application                      : mkvmerge v59.0.0 ('Shining Star') 64-bit
Writing library                          : libebml v1.4.2 + libmatroska v1.6.4
FileExtension_Invalid                    : mkv mk3d mka mks

Video
ID                                       : 1
Format                                   : HEVC
Format/Info                              : High Efficiency Video Coding
Format profile                           : @Main
Codec ID                                 : V_MPEGH/ISO/HEVC
Duration                                 : 1 h 37 min
Bit rate                                 : 15.6 Mb/s
Width                                    : 3 840 pixels
Height                                   : 2 160 pixels
Display aspect ratio                     : 16:9
Frame rate mode                          : Constant
Frame rate                               : 24.000 FPS
Color space                              : YUV
Chroma subsampling                       : 4:2:0
Bit depth                                : 8 bits
Bits/(Pixel*Frame)                       : 0.078
Stream size                              : 10.5 GiB (97%)
Default                                  : Yes
Forced                                   : No

Audio #1
ID                                       : 2
Format                                   : E-AC-3
Format/Info                              : Enhanced AC-3
Commercial name                          : Dolby Digital Plus
Codec ID                                 : A_EAC3
Duration                                 : 1 h 37 min
Bit rate mode                            : Constant
Bit rate                                 : 256 kb/s
Channel(s)                               : 6 channels
Channel layout                           : L R C LFE Ls Rs
Sampling rate                            : 48.0 kHz
Frame rate                               : 31.250 FPS (1536 SPF)
Compression mode                         : Lossy
Stream size                              : 178 MiB (2%)
Language                                 : Chinese
Service kind                             : Complete Main
Default                                  : Yes
Forced                                   : No

Audio #2
ID                                       : 3
Format                                   : AAC LC
Format/Info                              : Advanced Audio Codec Low Complexity
Codec ID                                 : A_AAC-2
Duration                                 : 1 h 37 min
Bit rate                                 : 192 kb/s
Channel(s)                               : 2 channels
Channel layout                           : L R
Sampling rate                            : 44.1 kHz
Frame rate                               : 43.066 FPS (1024 SPF)
Compression mode                         : Lossy
Stream size                              : 132 MiB (1%)
Language                                 : Chinese
Default                                  : Yes
Forced                                   : No




                                                                                                                                                                                                        
                                                                                                                                                                                                                                                                                                                                                                                                                                                                                                                                                                                                                                                                                                                                                                                                                                                        
48fa17db468e9a4ab44405feb357c495.torrent (31.86 KB, 下载次数: 0)

回复

使用道具 举报

小黑屋|西西论坛

本网站所有资源来自网络,如无意中侵犯了您的权益,请发邮件至 [email protected],立即清除相关链接

GMT+8, 2021-7-27 09:20 , Processed in 0.157232 second(s), 17 queries .

Powered by Discuz! X3.2

© 2001-2013 Comsenz Inc.

快速回复 返回顶部 返回列表