西西论坛

 找回密码
 立即注册
搜索

[天堂的张望][纯净版][BT下载][WEB-MKV/13.86GB][4K-2160P][感人,白血病,中国,电影,文 ...

[复制链接]
admin 发表于 7 天前 | 显示全部楼层 |阅读模式
-->71087223a155ea77501692cce93acdf0.jpg



◎译  名 天堂的张望
◎年  代 2020
◎产  地 中国大陆
◎类  别 剧情 / 家庭 / 儿童
◎语  言 汉语普通话
◎上映日期 2020-11-20(中国大陆)
◎片  长 116分钟
◎导  演 杜斌 Bin Du (id:1417466)
◎编  剧 杜斌 Bin Du (id:1417466)
◎演  员 杜奕衡 John Do (id:1275965)
       朱梓玥 Ziyue Zhu (id:1445099)
       王力可 Like Wang (id:1314078)
       马瑜遥 Yuyao Ma (id:1367189)
       吴志雄 Chi Hung Ng (id:1316796)
       刘流 Liu Liu (id:1315175)
       卢秋宏 Qiuhong Lu (id:1384169)
       宫晓瑄 Xiaoxuan Gong (id:1275543)
       张永达 Yongda Zhang (id:1350186)
       杜芷萱 Zhixuan Du (id:1449978)
       杜雨宸 Yuchen Du (id:1450842)
       杜丰宇 Fengyu Du (id:1450843)
       杜斌 Bin Du (id:1417466)

◎标  签 感人 / 白血病 / 中国 / 电影 / 文艺片 / 2020观影 / 2020 / A华语

◎简  介
  7岁女孩张望和父亲张国华相依为命,生活虽是清贫,但还是生活的很幸福。一天张望突然流鼻血不止,去医院检查,才知得了急性白血病,治疗需要30多万的费用,筹钱无果的张国华整日以泪洗面;而张望,清楚自己的家庭情况,毅然决定放弃治疗。记者王小月得知此事,赶往张国华家中,才得知了张望的真实身世.....事件经媒体曝光后,张望引起社会各界关注,全国各地纷纷捐款资助,很快,张望的医疗费就凑够了。感受到社会爱的力量和无数陌生人的关心,也使张望变得无比坚强,她用常人难以想象的痛苦接受着治疗,并一次一次经历着鬼门关,然而就在大家都认为张望的病快要好起来的时候,张望却做了一个出乎所有人意料的决定..........
General
Unique ID                                : 218688245834208199332685708394756635626 (0xA485D2F91E9770E3B9F13D21ED08FBEA)
Complete name                            : 天堂的张望.mkv
Format                                   : Matroska
Format version                           : Version 4
File size                                : 13.9 GiB
Duration                                 : 1 h 56 min
Overall bit rate                         : 17.0 Mb/s
Encoded date                             : UTC 2021-07-18 07:30:32
Writing application                      : mkvmerge v51.0.0 ('I Wish') 64-bit
Writing library                          : libebml v1.4.0 + libmatroska v1.6.2

Video
ID                                       : 1
Format                                   : HEVC
Format/Info                              : High Efficiency Video Coding
Format profile                           : @High
Codec ID                                 : V_MPEGH/ISO/HEVC
Duration                                 : 1 h 56 min
Bit rate                                 : 16.7 Mb/s
Width                                    : 3 840 pixels
Height                                   : 1 632 pixels
Display aspect ratio                     : 2.35:1
Frame rate mode                          : Constant
Frame rate                               : 24.000 FPS
Color space                              : YUV
Chroma subsampling                       : 4:2:0
Bit depth                                : 8 bits
Bits/(Pixel*Frame)                       : 0.111
Stream size                              : 13.6 GiB (98%)
Default                                  : Yes
Forced                                   : No

Audio
ID                                       : 2
Format                                   : E-AC-3
Format/Info                              : Enhanced AC-3
Commercial name                          : Dolby Digital Plus
Codec ID                                 : A_EAC3
Duration                                 : 1 h 56 min
Bit rate mode                            : Constant
Bit rate                                 : 256 kb/s
Channel(s)                               : 6 channels
Channel layout                           : L R C LFE Ls Rs
Sampling rate                            : 48.0 kHz
Frame rate                               : 31.250 FPS (1536 SPF)
Compression mode                         : Lossy
Stream size                              : 214 MiB (2%)
Service kind                             : Complete Main
Default                                  : Yes
Forced                                   : No




                                                                                                                                                                                                        
                                                                                                                                                                                                                                                                                                                                                                                                                                                                                                                                                                                                                                                                                                                                                                                                                                                        
b4cdb97b0241172092cc3073a115b7a3.torrent (39.35 KB, 下载次数: 0)

回复

使用道具 举报

小黑屋|西西论坛

本网站所有资源来自网络,如无意中侵犯了您的权益,请发邮件至 [email protected],立即清除相关链接

GMT+8, 2021-7-27 10:10 , Processed in 0.160299 second(s), 17 queries .

Powered by Discuz! X3.2

© 2001-2013 Comsenz Inc.

快速回复 返回顶部 返回列表