西西论坛

 找回密码
 立即注册
搜索

[邻居][纯净版][BT下载][BD-MKV/13.77GB][简繁字幕][1080P][,韩国,韩国电影,剧情,... ...

[复制链接]
admin 发表于 4 天前 | 显示全部楼层 |阅读模式
-->497fc59b00642917c738b21c9488b0cc.jpg



◎译  名 邻居 / 近邻 / Best Friend
◎片  名 ????
◎年  代 2020
◎产  地 韩国
◎类  别 剧情 / 悬疑 / 犯罪
◎语  言 韩语
◎上映日期 2020-11-25(韩国)
◎片  长 130分钟(韩国)
◎导  演 李焕庆 Hwan-kyeong Lee (id:1319978)
◎演  员 郑宇 Woo Jeong (id:1330454)
       吴达洙 Dal-su Oh (id:1203077)
       金熙元 Hae-won Kim (id:1321571)
       李侑菲 Yoo-Bi Lee (id:1324718)
       郑熙泰 Hee-tae Jung (id:1378175)
       池承炫 Ji Seung-hyeon (id:1383538)
       金炳哲 Byeong-cheol Kim (id:1372400)
       赵贤哲 Hyun-Chul Cho (id:1380429)
       金宣敬 Sun-kyung Kim (id:1112296)
       廉惠兰 Yum Hye-ran (id:1378885)
       郑贤俊 Hyun-joon Jung (id:1420959)
       金基天 Ki-cheon Kim (id:1339796)
       黄炳国 Byung-gook Hwang (id:1389460)
       朴哲民 Cheol-min Park (id:1218750)
       沈利煐 Yi-yeong Shim (id:1240306)

◎标  签  / 韩国 / 韩国电影 / 剧情 / 2020 / 悬疑 / 郑宇 / 李焕庆

◎简  介
  故事讲述被软禁在家中的预备大选竞选人和秘密监视邻居的一举一动的国家秘密情报要员,以及隔着一道墙的两个极端职业男子之间可疑而又隐秘的交易。
General
Unique ID                                : 143072690445013157046466461427105706430 (0x6BA2CC418CBBB163BD41A2E4E126B1BE)
Complete name                            : kv
Format                                   : Matroska
Format version                           : Version 4
File size                                : 13.8 GiB
Duration                                 : 2 h 9 min
Overall bit rate                         : 15.2 Mb/s
Encoded date                             : UTC 2021-07-17 09:12:15
Writing application                      : mkvmerge v58.0.0 ('Supper's Ready') 64-bit
Writing library                          : libebml v1.4.2 + libmatroska v1.6.4

Video
ID                                       : 1
Format                                   : AVC
Format/Info                              : Advanced Video Codec
Format profile                           :
Format settings                          : CABAC / 4 Ref Frames
Format settings, CABAC                   : Yes
Format settings, Reference frames        : 4 frames
Codec ID                                 : V_MPEG4/ISO/AVC
Duration                                 : 2 h 9 min
Bit rate                                 : 13.6 Mb/s
Width                                    : 1 920 pixels
Height                                   : 804 pixels
Display aspect ratio                     : 2.40:1
Frame rate mode                          : Constant
Frame rate                               : 23.976 (24000/1001) FPS
Color space                              : YUV
Chroma subsampling                       : 4:2:0
Bit depth                                : 8 bits
Scan type                                : Progressive
Bits/(Pixel*Frame)                       : 0.368
Stream size                              : 12.4 GiB (90%)
Writing library                          : x264 core 163 r3059+79M f2a8266 t_mod_test_xavc [(8 & 10) X86_64]
Encoding settings                        : cabac=1 / ref=4 / deblock=1:-3:-3 / analyse=0x3:0x133 / me=umh / subme=11 / psy=1 / fade_compensate=0.00 / psy_rd=1.00:0.00 / mixed_ref=1 / me_range=48 / chroma_me=1 / trellis=2 / 8x8dct=1 / cqm=0 / deadzone=21,11 / fast_pskip=0 / chroma_qp_offset=-3 / threads=24 / lookahead_threads=6 / sliced_threads=0 / nr=0 / decimate=0 / interlaced=0 / bluray_compat=0 / constrained_intra=0 / fgo=0 / bframes=11 / b_pyramid=2 / b_adapt=2 / b_bias=0 / direct=3 / weightb=1 / open_gop=0 / weightp=2 / keyint=240 / keyint_min=1 / scenecut=40 / intra_refresh=0 / rc_lookahead=72 / rc=crf / mbtree=0 / crf=18.5000 / qcomp=0.70 / qpmin=0:0:0 / qpmax=69:69:69 / qpstep=4 / vbv_maxrate=62500 / vbv_bufsize=78125 / crf_max=0.0 / nal_hrd=none / filler=0 / ip_ratio=1.40 / pb_ratio=1.30 / aq=3:0.90 / aq-sensitivity=10.00 / aq-factor=1.00:1.00:1.00 / aq2=0 / aq3=0
Language                                 : Korean
Default                                  : Yes
Forced                                   : No

Audio
ID                                       : 2
ID in the original source medium         : 4352 (0x1100)
Format                                   : DTS
Format/Info                              : Digital Theater Systems
Codec ID                                 : A_DTS
Duration                                 : 2 h 9 min
Bit rate mode                            : Constant
Bit rate                                 : 1 509 kb/s
Channel(s)                               : 6 channels
Channel layout                           : C L R Ls Rs LFE
Sampling rate                            : 48.0 kHz
Frame rate                               : 93.750 FPS (512 SPF)
Bit depth                                : 24 bits
Compression mode                         : Lossy
Stream size                              : 1.37 GiB (10%)
Language                                 : Korean
Default                                  : Yes
Forced                                   : No
Original source medium                   : Blu-ray

Text #1
ID                                       : 3
ID in the original source medium         : 4610 (0x1202)
Format                                   : PGS
Muxing mode                              : zlib
Codec ID                                 : S_HDMV/PGS
Codec ID/Info                            : Picture based subtitle format used on BDs/HD-DVDs
Duration                                 : 2 h 4 min
Bit rate                                 : 24.0 kb/s
Count of elements                        : 3421
Stream size                              : 21.3 MiB (0%)
Title                                    : 简中
Language                                 : Chinese
Default                                  : Yes
Forced                                   : No
Original source medium                   : Blu-ray

Text #2
ID                                       : 4
ID in the original source medium         : 4611 (0x1203)
Format                                   : PGS
Muxing mode                              : zlib
Codec ID                                 : S_HDMV/PGS
Codec ID/Info                            : Picture based subtitle format used on BDs/HD-DVDs
Duration                                 : 2 h 4 min
Bit rate                                 : 24.4 kb/s
Count of elements                        : 3421
Stream size                              : 21.6 MiB (0%)
Title                                    : 繁中
Language                                 : Chinese
Default                                  : No
Forced                                   : No
Original source medium                   : Blu-ray

Text #3
ID                                       : 5
ID in the original source medium         : 4609 (0x1201)
Format                                   : PGS
Muxing mode                              : zlib
Codec ID                                 : S_HDMV/PGS
Codec ID/Info                            : Picture based subtitle format used on BDs/HD-DVDs
Duration                                 : 2 h 4 min
Bit rate                                 : 29.8 kb/s
Count of elements                        : 3436
Stream size                              : 26.5 MiB (0%)
Title                                    : 英语
Language                                 : English
Default                                  : No
Forced                                   : No
Original source medium                   : Blu-ray

Text #4
ID                                       : 6
ID in the original source medium         : 4608 (0x1200)
Format                                   : PGS
Muxing mode                              : zlib
Codec ID                                 : S_HDMV/PGS
Codec ID/Info                            : Picture based subtitle format used on BDs/HD-DVDs
Duration                                 : 2 h 3 min
Bit rate                                 : 22.1 kb/s
Count of elements                        : 3369
Stream size                              : 19.6 MiB (0%)
Title                                    : 韩语
Language                                 : Korean
Default                                  : No
Forced                                   : No
Original source medium                   : Blu-ray

Menu
00:00:00.000                             : 第 01 章
00:08:24.754                             : 第 02 章
00:20:32.356                             : 第 03 章
00:30:43.716                             : 第 04 章
00:41:31.906                             : 第 05 章
00:57:25.608                             : 第 06 章
01:13:41.291                             : 第 07 章
01:25:14.818                             : 第 08 章
01:39:01.143                             : 第 09 章
01:48:48.855                             : 第 10 章
02:01:27.488                             : 第 11 章
02:04:41.265                             : 第 12 章




                                                                                                                                                                                                        
                                                                                                                                                                                                                                                                                                                                                                                                                                                                                                                                                                                                                                                                                                                                                                                                                                                        
96c4cd8cb6672dbdfe1616097d64a73d.torrent (39.03 KB, 下载次数: 0)

回复

使用道具 举报

小黑屋|西西论坛

本网站所有资源来自网络,如无意中侵犯了您的权益,请发邮件至 [email protected],立即清除相关链接

GMT+8, 2021-7-24 04:30 , Processed in 0.155564 second(s), 17 queries .

Powered by Discuz! X3.2

© 2001-2013 Comsenz Inc.

快速回复 返回顶部 返回列表