西西论坛

 找回密码
 立即注册
搜索

[海绵宝宝:营救大冒险][纯净版][BT下载][BD-MKV/4.80GB][双语字幕][1080P][海绵宝宝, ...

[复制链接]
admin 发表于 7 天前 | 显示全部楼层 |阅读模式
-->9929877ca2a7cf707c33638ff680ea16.jpg



◎译  名 海绵宝宝:营救大冒险 / 海绵宝宝3 / 海绵宝宝:奔跑吧(台) / 海绵宝宝:急急脚走佬(港) / SpongeBob Squarepants 3 / Spongebob Movie 3 / It's a Wonderful Sponge
◎片  名 The SpongeBob Movie: Sponge on the Run
◎年  代 2020
◎产  地 美国 / 韩国 / 墨西哥 / 日本 / 西班牙
◎类  别 喜剧 / 动画 / 冒险
◎语  言 英语 / 西班牙语 / 阿拉伯语
◎上映日期 2020-11-06(中国大陆网络) / 2020-08-14(加拿大)
◎片  长 91分钟
◎导  演 蒂姆·希尔 Tim Hill (id:1320343)
◎编  剧 蒂姆·希尔 Tim Hill (id:1320343)
       乔纳森·阿贝尔 Jonathan Aibel (id:1023289)
       格伦·伯杰 Glenn Berger (id:1050755)
       史蒂芬·海伦伯格 Stephen Hillenburg (id:1025052)
       保罗·提比特 Paul Tibbitt (id:1347754)
◎演  员 基努·里维斯 Keanu Reeves (id:1008070)
       奥卡菲娜 Awkwafina (id:1360857)
       克兰西·布朗 Clancy Brown (id:1013817)
       汤姆·肯尼 Tom Kenny (id:1113456)
       比尔·法格巴克 Bill Fagerbakke (id:1080079)
       罗里·艾伦 Lori Alan (id:1057987)
       劳伦斯先生 Mr. Lawrence (id:1347753)
       玛丽·乔·卡特利特 Mary Jo Catlett (id:1069059)
       罗德格尔·邦帕斯 Rodger Bumpass (id:1069989)
       吉尔·塔利 Jill Talley (id:1154164)
       卡罗琳·劳伦斯 Carolyn Lawrence (id:1110253)
       维罗妮卡·阿利奇诺 Veronica Alicino (id:1056960)
       汉斯·季默 Hans Zimmer (id:1054386)
        Nick Kenway Nick Kenway (id:1431554)
       Ineke Majoor   Ineke Majoor (id:1431543)

◎标  签 海绵宝宝 / 动画 / 喜剧 / 美国 / 2020 / 3D / 派拉蒙 / Nickelodeon

◎简  介
  《海绵宝宝:营救大冒险》讲述了海绵宝宝心爱的宠物小蜗被绑架后,海绵宝宝和派大星前往失落的大西洋城展开营救冒险的故事。在这场充满危险又妙趣横生的营救行动中,海绵宝宝和他的朋友们用实际行动证明了友谊的力量无限大!

◎获奖情况 (共1项)
  第19届美国视觉效果协会奖 (2021)
  最佳动画电影CG动画角色(提名)

General
Unique ID                                : 229295980397299380804398405256828650208 (0xAC80CCAA8E5920BB449757FA607B82E0)
Complete name                            : The.SpongeBobBBQDDQ.COM.mkv
Format                                   : Matroska
Format version                           : Version 4
File size                                : 4.80 GiB
Duration                                 : 1 h 31 min
Overall bit rate                         : 7 506 kb/s
Movie name                               : The SpongeBob Movie Sponge on the Run 2021 1080p BluRay DTS
Encoded date                             : UTC 2021-07-19 04:19:03
Writing application                      : mkvmerge v38.0.0 ('The Silent Type') 64-bit
Writing library                          : libebml v1.3.9 + libmatroska v1.5.2

Video
ID                                       : 1
Format                                   : HEVC
Format/Info                              : High Efficiency Video Coding
Format profile                           : Main @High
Codec ID                                 : V_MPEGH/ISO/HEVC
Duration                                 : 1 h 31 min
Bit rate                                 : 5 890 kb/s
Width                                    : 1 920 pixels
Height                                   : 1 036 pixels
Display aspect ratio                     : 1.85:1
Frame rate mode                          : Constant
Frame rate                               : 23.976 (24000/1001) FPS
Color space                              : YUV
Chroma subsampling                       : 4:2:0
Bit depth                                : 10 bits
Bits/(Pixel*Frame)                       : 0.124
Stream size                              : 3.77 GiB (78%)
Title                                    : @HDSky
Writing library                          : x265 - H.265/HEVC codec
Default                                  : Yes
Forced                                   : No

Audio
ID                                       : 2
Format                                   : DTS
Format/Info                              : Digital Theater Systems
Codec ID                                 : A_DTS
Duration                                 : 1 h 31 min
Bit rate mode                            : Constant
Bit rate                                 : 1 509 kb/s
Channel(s)                               : 6 channels
Channel layout                           : C L R Ls Rs LFE
Sampling rate                            : 48.0 kHz
Frame rate                               : 93.750 FPS (512 SPF)
Bit depth                                : 24 bits
Compression mode                         : Lossy
Stream size                              : 988 MiB (20%)
Title                                    : English
Language                                 : English
Default                                  : Yes
Forced                                   : No

Text #1
ID                                       : 3
Format                                   : PGS
Muxing mode                              : zlib
Codec ID                                 : S_HDMV/PGS
Codec ID/Info                            : Picture based subtitle format used on BDs/HD-DVDs
Duration                                 : 1 h 22 min
Bit rate                                 : 41.8 kb/s
Count of elements                        : 2598
Stream size                              : 24.5 MiB (0%)
Title                                    : ENG
Language                                 : English
Default                                  : Yes
Forced                                   : No

Text #2
ID                                       : 4
Format                                   : PGS
Muxing mode                              : zlib
Codec ID                                 : S_HDMV/PGS
Codec ID/Info                            : Picture based subtitle format used on BDs/HD-DVDs
Duration                                 : 1 h 22 min
Bit rate                                 : 40.9 kb/s
Count of elements                        : 2607
Stream size                              : 24.1 MiB (0%)
Title                                    : CHS
Language                                 : Chinese
Default                                  : No
Forced                                   : No

Text #3
ID                                       : 5
Format                                   : PGS
Muxing mode                              : zlib
Codec ID                                 : S_HDMV/PGS
Codec ID/Info                            : Picture based subtitle format used on BDs/HD-DVDs
Duration                                 : 1 h 22 min
Bit rate                                 : 41.8 kb/s
Count of elements                        : 2607
Stream size                              : 24.7 MiB (1%)
Title                                    : CHT
Language                                 : Chinese
Default                                  : No
Forced                                   : No

Text #4
ID                                       : 6
Format                                   : PGS
Muxing mode                              : zlib
Codec ID                                 : S_HDMV/PGS
Codec ID/Info                            : Picture based subtitle format used on BDs/HD-DVDs
Duration                                 : 1 h 22 min
Bit rate                                 : 56.6 kb/s
Count of elements                        : 2607
Stream size                              : 33.4 MiB (1%)
Title                                    : CHS&ENG
Language                                 : Chinese
Default                                  : No
Forced                                   : No

Text #5
ID                                       : 7
Format                                   : PGS
Muxing mode                              : zlib
Codec ID                                 : S_HDMV/PGS
Codec ID/Info                            : Picture based subtitle format used on BDs/HD-DVDs
Duration                                 : 1 h 22 min
Bit rate                                 : 57.6 kb/s
Count of elements                        : 2607
Stream size                              : 34.0 MiB (1%)
Title                                    : CHT&ENG
Language                                 : Chinese
Default                                  : No
Forced                                   : No

Menu
00:00:00.000                             : en:Chapter 01
00:05:00.000                             : en:Chapter 02
00:10:00.000                             : en:Chapter 03
00:15:00.000                             : en:Chapter 04
00:20:00.000                             : en:Chapter 05
00:25:00.000                             : en:Chapter 06
00:30:00.000                             : en:Chapter 07
00:35:00.000                             : en:Chapter 08
00:40:00.000                             : en:Chapter 09
00:45:00.000                             : en:Chapter 10
00:50:00.000                             : en:Chapter 11
00:55:00.000                             : en:Chapter 12
01:00:00.000                             : en:Chapter 13
01:05:00.000                             : en:Chapter 14
01:10:00.000                             : en:Chapter 15
01:15:00.000                             : en:Chapter 16
01:20:00.000                             : en:Chapter 17
01:25:00.000                             : en:Chapter 18
01:30:00.000                             : en:Chapter 19




                                                                                                                                                                                                        
                                                                                                                                                                                                                                                                                                                                                                                                                                                                                                                                                                                                                                                                                                                                                                                                                                                        
5264af5621de36fbedf310ca51302e3e.torrent (16.74 KB, 下载次数: 0)

回复

使用道具 举报

小黑屋|西西论坛

本网站所有资源来自网络,如无意中侵犯了您的权益,请发邮件至 [email protected],立即清除相关链接

GMT+8, 2021-7-27 09:25 , Processed in 0.144723 second(s), 17 queries .

Powered by Discuz! X3.2

© 2001-2013 Comsenz Inc.

快速回复 返回顶部 返回列表