西西论坛

 找回密码
 立即注册
搜索

[你是凶手][纯净版][BT下载][WEB-MP4/9.55GB][4K-2160P][犯罪,悬疑,推理,中国大陆,翻 ...

[复制链接]
admin 发表于 7 天前 | 显示全部楼层 |阅读模式
-->761c6f9fd4e03d33a99f543d500141a3.jpg



◎译  名 你是凶手 / 迷局英雄 / The Guilty Ones / The Convicted
◎年  代 2019
◎产  地 中国大陆
◎类  别 剧情 / 悬疑 / 犯罪
◎语  言 汉语普通话
◎上映日期 2019-11-22(中国大陆)
◎片  长 94分钟
◎导  演 王昱 Yu Wang (id:1300412)
◎编  剧 杜语 Yu Du (id:1357485)
◎演  员 王千源 Qianyuan Wang (id:1314827)
       宋佳 Jia Song (id:1042341)
       冯远征 Yuanzheng Feng (id:1043136)
       李九霄 Jiuxiao Li (id:1330992)
       何沄伟 Yunwei He (id:1313982)
       石凉 Liang Shi (id:1313009)
       张诣文含 Yiwenhan Zhang (id:1429675)
       韩璐 Liz Han (id:1453964)
       王昱 Yu Wang (id:1300412)
       杨江 Jiang Yang (id:1351381)
       赵楠 Nan Zhao (id:1325307)

◎标  签 犯罪 / 悬疑 / 推理 / 中国大陆 / 翻拍 / 剧情 / 2019 / 人性

◎简  介
  10年前,白兰(宋佳 饰)女儿铃铛被绑架并意外身亡,重案组警官陈浩(王千源 饰)许诺孩子母亲一定将凶手绳之以法。无奈经过漫长的追查却一无所获,陈浩带着遗憾离开警队。10年后,陈浩偶然间发现新线索,身患绝症的白兰重拾希望,决心为女寻凶,两人展开调查并发现了罪犯留下的蛛丝马迹。与此同时,李爱军(冯远征 饰)外孙女也遭人绑架,绑架手法跟10年前如出一辙,面对狡猾的嫌犯,陈浩和白兰能否抓到凶手,一偿夙愿…
General
Complete name                            : 你是凶手
Format                                   : MPEG-4
Format profile                           : Base Media
Codec ID                                 : isom (isom/iso2/mp41)
File size                                : 9.55 GiB
Duration                                 : 1 h 33 min
Overall bit rate                         : 14.6 Mb/s
Writing application                      : Lavf58.32.104

Video
ID                                       : 1
Format                                   : HEVC
Format/Info                              : High Efficiency Video Coding
Format profile                           : @Main
Codec ID                                 : hev1
Codec ID/Info                            : High Efficiency Video Coding
Duration                                 : 1 h 33 min
Bit rate                                 : 14.4 Mb/s
Width                                    : 3 840 pixels
Height                                   : 1 608 pixels
Display aspect ratio                     : 2.40:1
Frame rate mode                          : Constant
Frame rate                               : 24.000 FPS
Color space                              : YUV
Chroma subsampling                       : 4:2:0
Bit depth                                : 8 bits
Bits/(Pixel*Frame)                       : 0.097
Stream size                              : 9.42 GiB (99%)
Codec configuration box                  : hvcC

Audio
ID                                       : 2
Format                                   : AAC LC
Format/Info                              : Advanced Audio Codec Low Complexity
Codec ID                                 : mp4a-40-2
Duration                                 : 1 h 33 min
Bit rate mode                            : Constant
Bit rate                                 : 192 kb/s
Channel(s)                               : 2 channels
Channel layout                           : L R
Sampling rate                            : 44.1 kHz
Frame rate                               : 43.066 FPS (1024 SPF)
Compression mode                         : Lossy
Stream size                              : 127 MiB (1%)
Default                                  : Yes
Alternate group                          : 1




                                                                                                                                                                                                        
                                                                                                                                                                                                                                                                                                                                                                                                                                                                                                                                                                                                                                                                                                                                                                                                                                                        
476c5ec39ff1e7adb5c0dc70ec786d0b.torrent (28.54 KB, 下载次数: 0)

回复

使用道具 举报

小黑屋|西西论坛

本网站所有资源来自网络,如无意中侵犯了您的权益,请发邮件至 [email protected],立即清除相关链接

GMT+8, 2021-7-27 10:19 , Processed in 0.132422 second(s), 17 queries .

Powered by Discuz! X3.2

© 2001-2013 Comsenz Inc.

快速回复 返回顶部 返回列表