西西论坛

 找回密码
 立即注册
搜索

[无声][纯净版][BT下载][WEB-MKV/1.55GB][简繁字幕][1080P][刘亚仁,韩国,犯罪,人性,韩 ...

[复制链接]
admin 发表于 5 天前 | 显示全部楼层 |阅读模式
-->ad3639aee6d9a6f99e95c20dec350dae.jpg



◎译  名 无声 / 收尸人(台) / 连声音都没有(台) / 无声无息 / Voice of Silence
◎片  名 ??? ??
◎年  代 2020
◎产  地 韩国
◎类  别 惊悚 / 犯罪
◎语  言 韩语
◎上映日期 2020-10-15(韩国)
◎片  长 99分钟
◎导  演 洪义正 Eui-Jeong Hong (id:1428195)
◎编  剧 洪义正 Eui-Jeong Hong (id:1428195)
◎演  员 刘亚仁 Ah-in Yoo (id:1246859)
       刘在明 Jae-myung Yoo (id:1376010)
       文胜雅 Seung-ah Moon (id:1446737)
       林姜成 Kang-sung Im (id:1382186)
       李海云 Hae-woon Lee (id:1424195)
       俞成柱 Sung-joo Yoo (id:1421197)
       金子英 Kim Ja-yeong (id:1385452)
       金汉娜 Han-na Kim (id:1446836)
       李佳恩 Lee Ka Eun (id:1452610)
       金南优 Nam-woo Kim (id:1453062)
       金泰完 Lewis Taewan Kim (id:1458736)
       张赫镇 Hyukjin Chang (id:1452266)
       张容镇 Yong Jin Chang (id:1452267)
       朴正训 Jung-hun Park (id:1434945)
       韩美妍 Meeyeon Han (id:1449454)
       Hyun-seo Yang  (id:1452268)
       Woo-jin Choi  (id:1452269)

◎标  签 刘亚仁 / 韩国 / 犯罪 / 人性 / 韩国电影 / 犯罪/暴力 / 2020 / 惊悚

◎简  介
  昌福(刘在明 饰)和泰仁(刘亚仁 饰)表面上以卖菜为生,实际上两人还有另一个活计,就是为黑道组织提供杀人场所以及处理尸体,一日像往常一样在处理尸体的两人被组织中的金室长(林姜成 饰)胁迫,去接管一个被绑架的11岁女孩初喜(文胜雅 饰),两人平静的生活随即被打破,事情开始向着他们无法控制的方向发展…

◎获奖情况 (共11项)
  第41届韩国电影青龙奖 (2020)
  最佳影片(提名)
  最佳男主角
   └──刘亚仁 (id:1246859)
  最佳新人导演
   └──洪义正 (id:1428195)
  最佳剧本(提名)

  第57届百想艺术大赏 (2021)
  电影类 最佳影片(提名)
  电影类 最佳导演
   └──洪义正 (id:1428195)
  电影类 最佳男主角
   └──刘亚仁 (id:1246859)
  电影类 最佳男配角(提名)
   └──刘在明 (id:1376010)
  电影类 最佳新人导演(提名)
   └──洪义正 (id:1428195)
  电影类 最佳编剧(提名)
   └──洪义正 (id:1428195)

  第7届豆瓣电影年度榜单 (2020)
  评分最高的韩国电影(提名)

General
Unique ID                                : 270048772595108261107939738388056738185 (0xCB298073404EECA8140DF3E0D5D78989)
Complete name                            :
Format                                   : Matroska
Format version                           : Version 4
File size                                : 1.55 GiB
Duration                                 : 1 h 35 min
Overall bit rate                         : 2 326 kb/s
Encoded date                             : UTC 2021-07-17 13:51:17
Writing application                      : mkvmerge v56.1.0 ('My Friend') 64-bit
Writing library                          : libebml v1.4.2 + libmatroska v1.6.4

Video
ID                                       : 1
Format                                   : HEVC
Format/Info                              : High Efficiency Video Coding
Format profile                           : @Main
Codec ID                                 : V_MPEGH/ISO/HEVC
Duration                                 : 1 h 35 min
Bit rate                                 : 2 134 kb/s
Width                                    : 1 920 pixels
Height                                   : 1 080 pixels
Display aspect ratio                     : 16:9
Frame rate mode                          : Constant
Frame rate                               : 24.000 FPS
Color space                              : YUV
Chroma subsampling                       : 4:2:0
Bit depth                                : 8 bits
Bits/(Pixel*Frame)                       : 0.043
Stream size                              : 1.42 GiB (92%)
Default                                  : Yes
Forced                                   : No

Audio
ID                                       : 2
Format                                   : AAC LC
Format/Info                              : Advanced Audio Codec Low Complexity
Codec ID                                 : A_AAC-2
Duration                                 : 1 h 35 min
Bit rate                                 : 192 kb/s
Channel(s)                               : 2 channels
Channel layout                           : L R
Sampling rate                            : 44.1 kHz
Frame rate                               : 43.066 FPS (1024 SPF)
Compression mode                         : Lossy
Stream size                              : 130 MiB (8%)
Language                                 : Korean
Default                                  : Yes
Forced                                   : No

Text #1
ID                                       : 3
Format                                   : UTF-8
Codec ID                                 : S_TEXT/UTF8
Codec ID/Info                            : UTF-8 Plain Text
Duration                                 : 1 h 30 min
Bit rate                                 : 28 b/s
Count of elements                        : 846
Stream size                              : 18.9 KiB (0%)
Title                                    : Chinese Simplified
Language                                 : Chinese
Default                                  : Yes
Forced                                   : No

Text #2
ID                                       : 4
Format                                   : UTF-8
Codec ID                                 : S_TEXT/UTF8
Codec ID/Info                            : UTF-8 Plain Text
Duration                                 : 1 h 30 min
Bit rate                                 : 26 b/s
Count of elements                        : 835
Stream size                              : 17.8 KiB (0%)
Title                                    : Chinese Traditional
Language                                 : Chinese
Default                                  : No
Forced                                   : No

Text #3
ID                                       : 5
Format                                   : UTF-8
Codec ID                                 : S_TEXT/UTF8
Codec ID/Info                            : UTF-8 Plain Text
Duration                                 : 1 h 32 min
Bit rate                                 : 30 b/s
Count of elements                        : 850
Stream size                              : 20.6 KiB (0%)
Title                                    : English
Language                                 : English
Default                                  : No
Forced                                   : No




                                                                                                                                                                                                        
                                                                                                                                                                                                                                                                                                                                                                                                                                                                                                                                                                                                                                                                                                                                                                                                                                                        
4a21ee6c0de2129433e0a3725ac1432b.torrent (8.59 KB, 下载次数: 0)

回复

使用道具 举报

小黑屋|西西论坛

本网站所有资源来自网络,如无意中侵犯了您的权益,请发邮件至 [email protected],立即清除相关链接

GMT+8, 2021-7-24 06:01 , Processed in 0.157411 second(s), 17 queries .

Powered by Discuz! X3.2

© 2001-2013 Comsenz Inc.

快速回复 返回顶部 返回列表