西西论坛

 找回密码
 立即注册
搜索

[孤味][纯净版][BT下载][WEB-MKV/3.94GB][繁体字幕][1080P][家庭,台湾,台湾电影,电影, ...

[复制链接]
admin 发表于 5 天前 | 显示全部楼层 |阅读模式
-->3730cb66255b2bfc21170dd96fa1c647.jpg



◎译  名 孤味 / Little Big Women / Guo Mie
◎年  代 2020
◎产  地 中国台湾
◎类  别 剧情 / 家庭
◎语  言 汉语普通话 / 闽南话
◎上映日期 2020-11-06(中国台湾) / 2021-02-05(中国台湾网络)
◎片  长 123分钟
◎导  演 许承杰 Joseph Chen-Chieh Hsu (id:1411383)
◎编  剧 许承杰 Joseph Chen-Chieh Hsu (id:1411383)
       黄怡玫 Maya Huang (id:1382747)
◎演  员 陈淑芳 Shu-Fang Chen (id:1339273)
       谢盈萱 Ying-Hsuan Hsieh (id:1360505)
       孙可芳 Ke-Fang Sun (id:1390693)
       丁宁 Ning Ding (id:1319882)
       陈姸霏 Buffy Chen (id:1445350)
       张钧甯 Chun-Ning Chang (id:1257882)
       杨一展 Leroy Yang (id:1315912)
       张翰 Han Chang (id:1006354)
       龙劭华 Siu Wa Lung (id:1316680)
       洪胜德 Honduras (id:1324552)
       琇琴 Sara Yu (id:1358339)
       杨闵 Ming Yang (id:1365777)
       许怀民 Hsu Huaimin (id:1451216)
       庄心瑜 Hsin-Yu Chuang (id:1366720)
       蔡海殷 Tsai Hai-Yin (id:1451217)
       陈家逵 Chia-Kuei Chen (id:1397063)
       林钰芠 Yu-Wen Lin (id:1451304)
       廖庆松 Ching-Song Liao (id:1312523)
       刘宛玲 Jacqueline W. Liu (id:1379183)
       陈郁佳 Tiffany Yu-Chia Chen (id:1451204)
       吴明宪 Ming-Hsien Wu (id:1396931)
       林逸心 Elisa Y.H. Lin (id:1451205)
       杨宥瑜 Yuyu Yang (id:1379182)
       何伯勋 Pohsun He (id:1451206)
       刘怡君 Yi-Chun Liu (id:1451213)
       柯智豪 Zhihao Ke (id:1451208)
       Jon Keng    Jon Keng (id:1451207)
       陈瑞杰 Rui-Jie Chen (id:1451220)
       廖庆松 Ching-Song Liao (id:1312523)
       陈俊宏 Chun-Hung Chen (id:1405906)
       游惠雯 Katia Yu (id:1451212)
       陈荧德 Ying-Te Julie Chen (id:1384899)
       林育妘 Emma Lin (id:1370243)
       苏庭卉 Zoey Su (id:1451210)
       张雅钧 Steven Chang (id:1451214)
       邓茜云 Chien-Yun Teng (id:1451215)
       杨书昕 Agnes Yang (id:1451209)
       严唯甄 Morgan Yen (id:1451211)

◎标  签 家庭 / 台湾 / 台湾电影 / 2020 / 电影 / 徐若瑄 / 谢盈萱 / 陈淑芳

◎简  介
  林秀英(陈淑芳 饰)是台南赫赫有名的餐厅老板,在丈夫(龙劭华 饰)无声无息地离家后,便靠著卖虾卷独自抚养三个女儿长大成人,不仅把虾卷从路边摊卖到开餐厅,三个女儿更是成就非凡,大女儿阿青(谢盈萱 饰)是国际舞者,二女儿阿瑜(徐若瑄 饰)在台北当整形医生,小女儿佳佳(孙可芳 饰)则接手自己的餐厅事业。眼看就要苦尽甘来,秀英却在70大寿当天接到丈夫离世的噩耗,在替这位有名无实的丈夫筹办丧礼的同时,竟意外迎来了另一位陪伴丈夫度过晚年的女人,令她不得不再次面对内心埋藏已久的怨怼……
General
Unique ID                                : 267294521912288935573503306372383828858 (0xC9170D6842F3D70ABBE3C1804854EB7A)
Complete name                            : 孤味QDDQ.COM.mkv
Format                                   : Matroska
Format version                           : Version 4
File size                                : 3.93 GiB
Duration                                 : 2 h 3 min
Overall bit rate                         : 4 575 kb/s
Encoded date                             : UTC 2021-07-17 10:56:44
Writing application                      : mkvmerge v58.0.0 ('Supper's Ready') 64-bit
Writing library                          : libebml v1.4.2 + libmatroska v1.6.4

Video
ID                                       : 1
Format                                   : AVC
Format/Info                              : Advanced Video Codec
Format profile                           :
Format settings                          : CABAC / 4 Ref Frames
Format settings, CABAC                   : Yes
Format settings, Reference frames        : 4 frames
Codec ID                                 : V_MPEG4/ISO/AVC
Duration                                 : 2 h 3 min
Bit rate                                 : 3 933 kb/s
Width                                    : 1 920 pixels
Height                                   : 1 080 pixels
Display aspect ratio                     : 16:9
Frame rate mode                          : Constant
Frame rate                               : 24.000 FPS
Color space                              : YUV
Chroma subsampling                       : 4:2:0
Bit depth                                : 8 bits
Scan type                                : Progressive
Bits/(Pixel*Frame)                       : 0.079
Stream size                              : 3.38 GiB (86%)
Default                                  : Yes
Forced                                   : No

Audio
ID                                       : 2
Format                                   : E-AC-3
Format/Info                              : Enhanced AC-3
Commercial name                          : Dolby Digital Plus
Codec ID                                 : A_EAC3
Duration                                 : 2 h 3 min
Bit rate mode                            : Constant
Bit rate                                 : 640 kb/s
Channel(s)                               : 6 channels
Channel layout                           : L R C LFE Ls Rs
Sampling rate                            : 48.0 kHz
Frame rate                               : 31.250 FPS (1536 SPF)
Compression mode                         : Lossy
Delay relative to video                  : -83 ms
Stream size                              : 564 MiB (14%)
Language                                 : Nauru
Service kind                             : Complete Main
Default                                  : Yes
Forced                                   : No

Text #1
ID                                       : 3
Format                                   : UTF-8
Codec ID                                 : S_TEXT/UTF8
Codec ID/Info                            : UTF-8 Plain Text
Duration                                 : 2 h 1 min
Bit rate                                 : 43 b/s
Count of elements                        : 1333
Stream size                              : 38.4 KiB (0%)
Title                                    : English
Language                                 : English
Default                                  : Yes
Forced                                   : No

Text #2
ID                                       : 4
Format                                   : UTF-8
Codec ID                                 : S_TEXT/UTF8
Codec ID/Info                            : UTF-8 Plain Text
Duration                                 : 2 h 1 min
Bit rate                                 : 67 b/s
Count of elements                        : 1193
Stream size                              : 60.0 KiB (0%)
Title                                    : Japanese
Language                                 : Japanese
Default                                  : Yes
Forced                                   : No

Text #3
ID                                       : 5
Format                                   : UTF-8
Codec ID                                 : S_TEXT/UTF8
Codec ID/Info                            : UTF-8 Plain Text
Duration                                 : 2 h 1 min
Bit rate                                 : 47 b/s
Count of elements                        : 1429
Stream size                              : 42.6 KiB (0%)
Title                                    : Korean
Language                                 : Korean
Default                                  : Yes
Forced                                   : No

Text #4
ID                                       : 6
Format                                   : UTF-8
Codec ID                                 : S_TEXT/UTF8
Codec ID/Info                            : UTF-8 Plain Text
Duration                                 : 1 h 55 min
Bit rate                                 : 39 b/s
Count of elements                        : 1405
Stream size                              : 33.4 KiB (0%)
Title                                    : 簡体
Language                                 : Chinese
Default                                  : Yes
Forced                                   : No

Text #5
ID                                       : 7
Format                                   : UTF-8
Codec ID                                 : S_TEXT/UTF8
Codec ID/Info                            : UTF-8 Plain Text
Duration                                 : 1 h 55 min
Bit rate                                 : 39 b/s
Count of elements                        : 1405
Stream size                              : 33.4 KiB (0%)
Title                                    : 繁體
Language                                 : Chinese
Default                                  : Yes
Forced                                   : No




                                                                                                                                                                                                        
                                                                                                                                                                                                                                                                                                                                                                                                                                                                                                                                                                                                                                                                                                                                                                                                                                                        
fee6f50e5368628f9b28306ae808ff75.torrent (14.55 KB, 下载次数: 0)

回复

使用道具 举报

小黑屋|西西论坛

本网站所有资源来自网络,如无意中侵犯了您的权益,请发邮件至 [email protected],立即清除相关链接

GMT+8, 2021-7-24 04:26 , Processed in 0.127352 second(s), 17 queries .

Powered by Discuz! X3.2

© 2001-2013 Comsenz Inc.

快速回复 返回顶部 返回列表