西西论坛

 找回密码
 立即注册
搜索

[寂静之地2][纯净版][BT下载][WEB-MKV/7.41GB][简繁字幕][1080P][惊悚,恐怖,美国,科幻 ...

[复制链接]
admin 发表于 2021-7-17 20:06:20 | 显示全部楼层 |阅读模式
-->a18f3971c86cf05138c745763e5873c1.jpg



◎译  名 寂静之地2 / 无声绝境II(港) / 噤界II(台) / A Quiet Place 2
◎片  名 A Quiet Place: Part II
◎年  代 2021
◎产  地 美国
◎类  别 科幻 / 惊悚 / 恐怖
◎语  言 英语
◎上映日期 2021-05-28(中国大陆/美国)
◎片  长 97分钟
◎导  演 约翰·卡拉辛斯基 John Krasinski (id:1027146)
◎编  剧 约翰·卡拉辛斯基 John Krasinski (id:1027146)
       斯科特·贝克 Scott Beck (id:1029358)
       布莱恩·伍兹 Bryan Woods (id:1052734)
◎演  员 艾米莉·布朗特 Emily Blunt (id:1041022)
       基里安·墨菲 Cillian Murphy (id:1047992)
       米利森特·西蒙兹 Millicent Simmonds (id:1374192)
       诺亚·尤佩 Noah Jupe (id:1356120)
       约翰·卡拉辛斯基 John Krasinski (id:1027146)
       杰曼·翰苏 Djimon Hounsou (id:1044880)
       奥基里特·奥诺多瓦 Okieriete Onaodowan (id:1382437)
       斯科特·麦克纳里 Scoot McNairy (id:1302972)
       扎卡里·戈林格 Zachary Golinger (id:1457353)
       布莱克·德隆 Blake DeLong (id:1457674)
       加里·桑当 Gary Sundown (id:1457675)
       阿什利·戴克 Ashley Dyke (id:1366174)
       韦恩·杜瓦尔 Wayne Duvall (id:1019154)
       克兹托夫·克里斯·马杜拉 Krzysztof 'Kris' Mardula (id:1419252)
       阿利森·西格 Allyson Seeger (id:1457351)
       乔安·佩里塔诺 JoAnn Perritano (id:1392782)
       迈克尔·贝 Michael Bay (id:1027776)
       安德鲁·福姆 Andrew Form (id:1457352)
       布拉德利·福勒 Bradley Fuller (id:1284314)
       约翰·卡拉辛斯基 John Krasinski (id:1027146)
       马可·贝尔崔米 Marco Beltrami (id:1027998)
       波莉·摩根 Polly Morgan (id:1429254)
       劳拉·罗森塔尔 Laura Rosenthal (id:1296112)
       杰西·冈作 Jess Gonchor (id:1010149)
       南茜·黑格 Nancy Haigh (id:1285800)
       卡西娅·瓦利卡-麦蒙 Kasia Walicka-Maimone (id:1290762)

◎标  签 惊悚 / 恐怖 / 美国 / 科幻 / 惊恐 / 2021 / 悬疑 / 超自然

◎简  介
  故事紧承上一部展开。在丈夫为保护家人牺牲后,伊芙琳(艾米莉·布朗特 饰)不得不独自带着孩子们(米莉森·西蒙斯、诺亚·尤佩 饰)面对全新的生存挑战。他们将被迫离开家园,踏上一段未知的旅途。在无声的世界里,除了要躲避“猎声怪物”的捕杀,铺满细沙的道路尽头还暗藏着新的危机。
General
Unique ID                                : 231665044643998599756966098285460356377 (0xAE49108D370343CE086951D53CAA7D19)
Complete name                            : BBQDDQ.COM.mkv
Format                                   : Matroska
Format version                           : Version 4
File size                                : 7.40 GiB
Duration                                 : 1 h 37 min
Overall bit rate                         : 10.9 Mb/s
Encoded date                             : UTC 2021-06-27 23:41:01
Writing application                      : mkvmerge v56.0.0 ('Strasbourg / St. Denis') 64-bit
Writing library                          : libebml v1.4.2 + libmatroska v1.6.4

Video
ID                                       : 1
Format                                   : AVC
Format/Info                              : Advanced Video Codec
Format profile                           :
Format settings                          : CABAC / 5 Ref Frames
Format settings, CABAC                   : Yes
Format settings, Reference frames        : 5 frames
Codec ID                                 : V_MPEG4/ISO/AVC
Duration                                 : 1 h 37 min
Bit rate                                 : 10.2 Mb/s
Width                                    : 1 916 pixels
Height                                   : 798 pixels
Display aspect ratio                     : 2.40:1
Frame rate mode                          : Constant
Frame rate                               : 23.976 (24000/1001) FPS
Color space                              : YUV
Chroma subsampling                       : 4:2:0
Bit depth                                : 8 bits
Scan type                                : Progressive
Bits/(Pixel*Frame)                       : 0.277
Stream size                              : 6.88 GiB (93%)
Default                                  : Yes
Forced                                   : No
Color range                              : Limited
Color primaries                          : BT.709
Transfer characteristics                 : BT.709
Matrix coefficients                      : BT.709

Audio
ID                                       : 2
Format                                   : E-AC-3 JOC
Format/Info                              : Enhanced AC-3 with Joint Object Coding
Commercial name                          : Dolby Digital Plus with Dolby Atmos
Codec ID                                 : A_EAC3
Duration                                 : 1 h 37 min
Bit rate mode                            : Constant
Bit rate                                 : 768 kb/s
Channel(s)                               : 6 channels
Channel layout                           : L R C LFE Ls Rs
Sampling rate                            : 48.0 kHz
Frame rate                               : 31.250 FPS (1536 SPF)
Compression mode                         : Lossy
Stream size                              : 533 MiB (7%)
Title                                    : English
Language                                 : English
Service kind                             : Complete Main
Default                                  : Yes
Forced                                   : No
Complexity index                         : 16
Number of dynamic objects                : 15
Bed channel count                        : 1 channel
Bed channel configuration                : LFE

Text #1
ID                                       : 3
Format                                   : UTF-8
Codec ID                                 : S_TEXT/UTF8
Codec ID/Info                            : UTF-8 Plain Text
Duration                                 : 47 min 28 s
Bit rate                                 : 3 b/s
Count of elements                        : 69
Stream size                              : 1.26 KiB (0%)
Title                                    : English [Forced]
Language                                 : English
Default                                  : No
Forced                                   : Yes

Text #2
ID                                       : 4
Format                                   : UTF-8
Codec ID                                 : S_TEXT/UTF8
Codec ID/Info                            : UTF-8 Plain Text
Duration                                 : 1 h 35 min
Bit rate                                 : 10 b/s
Count of elements                        : 329
Stream size                              : 7.61 KiB (0%)
Title                                    : European Spanish
Language                                 : Spanish
Default                                  : No
Forced                                   : No

Text #3
ID                                       : 5
Format                                   : UTF-8
Codec ID                                 : S_TEXT/UTF8
Codec ID/Info                            : UTF-8 Plain Text
Duration                                 : 1 h 35 min
Bit rate                                 : 9 b/s
Count of elements                        : 299
Stream size                              : 6.95 KiB (0%)
Title                                    : French
Language                                 : French
Default                                  : No
Forced                                   : No

Text #4
ID                                       : 6
Format                                   : UTF-8
Codec ID                                 : S_TEXT/UTF8
Codec ID/Info                            : UTF-8 Plain Text
Duration                                 : 1 h 35 min
Bit rate                                 : 10 b/s
Count of elements                        : 322
Stream size                              : 7.49 KiB (0%)
Title                                    : Portuguese
Language                                 : Portuguese
Default                                  : No
Forced                                   : No

Text #5
ID                                       : 7
Format                                   : UTF-8
Codec ID                                 : S_TEXT/UTF8
Codec ID/Info                            : UTF-8 Plain Text
Duration                                 : 1 h 35 min
Bit rate                                 : 10 b/s
Count of elements                        : 326
Stream size                              : 7.49 KiB (0%)
Title                                    : Polish
Language                                 : Polish
Default                                  : No
Forced                                   : No

Text #6
ID                                       : 8
Format                                   : UTF-8
Codec ID                                 : S_TEXT/UTF8
Codec ID/Info                            : UTF-8 Plain Text
Duration                                 : 1 h 35 min
Bit rate                                 : 11 b/s
Count of elements                        : 331
Stream size                              : 7.90 KiB (0%)
Title                                    : Turkish
Language                                 : Turkish
Default                                  : No
Forced                                   : No

Text #7
ID                                       : 9
Format                                   : UTF-8
Codec ID                                 : S_TEXT/UTF8
Codec ID/Info                            : UTF-8 Plain Text
Duration                                 : 1 h 35 min
Bit rate                                 : 11 b/s
Count of elements                        : 328
Stream size                              : 7.97 KiB (0%)
Title                                    : Swedish
Language                                 : Swedish
Default                                  : No
Forced                                   : No

Text #8
ID                                       : 10
Format                                   : UTF-8
Codec ID                                 : S_TEXT/UTF8
Codec ID/Info                            : UTF-8 Plain Text
Duration                                 : 1 h 35 min
Bit rate                                 : 9 b/s
Count of elements                        : 311
Stream size                              : 6.89 KiB (0%)
Title                                    : Danish
Language                                 : Danish
Default                                  : No
Forced                                   : No

Text #9
ID                                       : 11
Format                                   : UTF-8
Codec ID                                 : S_TEXT/UTF8
Codec ID/Info                            : UTF-8 Plain Text
Duration                                 : 1 h 35 min
Bit rate                                 : 11 b/s
Count of elements                        : 333
Stream size                              : 8.05 KiB (0%)
Title                                    : Finnish
Language                                 : Finnish
Default                                  : No
Forced                                   : No

Text #10
ID                                       : 12
Format                                   : UTF-8
Codec ID                                 : S_TEXT/UTF8
Codec ID/Info                            : UTF-8 Plain Text
Duration                                 : 1 h 35 min
Bit rate                                 : 10 b/s
Count of elements                        : 333
Stream size                              : 7.12 KiB (0%)
Title                                    : Norwegian
Language                                 : Norwegian
Default                                  : No
Forced                                   : No

Text #11
ID                                       : 13
Format                                   : UTF-8
Codec ID                                 : S_TEXT/UTF8
Codec ID/Info                            : UTF-8 Plain Text
Duration                                 : 1 h 35 min
Bit rate                                 : 17 b/s
Count of elements                        : 331
Stream size                              : 12.4 KiB (0%)
Title                                    : Russian
Language                                 : Russian
Default                                  : No
Forced                                   : No

Text #12
ID                                       : 14
Format                                   : UTF-8
Codec ID                                 : S_TEXT/UTF8
Codec ID/Info                            : UTF-8 Plain Text
Duration                                 : 1 h 35 min
Bit rate                                 : 17 b/s
Count of elements                        : 339
Stream size                              : 12.4 KiB (0%)
Title                                    : Ukrainian
Language                                 : Ukrainian
Default                                  : No
Forced                                   : No

Text #13
ID                                       : 15
Format                                   : UTF-8
Codec ID                                 : S_TEXT/UTF8
Codec ID/Info                            : UTF-8 Plain Text
Duration                                 : 1 h 35 min
Bit rate                                 : 10 b/s
Count of elements                        : 334
Stream size                              : 7.69 KiB (0%)
Title                                    : Hungarian
Language                                 : Hungarian
Default                                  : No
Forced                                   : No

Text #14
ID                                       : 16
Format                                   : UTF-8
Codec ID                                 : S_TEXT/UTF8
Codec ID/Info                            : UTF-8 Plain Text
Duration                                 : 1 h 35 min
Bit rate                                 : 17 b/s
Count of elements                        : 324
Stream size                              : 12.5 KiB (0%)
Title                                    : Greek
Language                                 : Greek
Default                                  : No
Forced                                   : No

Text #15
ID                                       : 17
Format                                   : UTF-8
Codec ID                                 : S_TEXT/UTF8
Codec ID/Info                            : UTF-8 Plain Text
Duration                                 : 1 h 35 min
Bit rate                                 : 14 b/s
Count of elements                        : 336
Stream size                              : 10.2 KiB (0%)
Title                                    : Hebrew
Language                                 : Hebrew
Default                                  : No
Forced                                   : No

Text #16
ID                                       : 18
Format                                   : UTF-8
Codec ID                                 : S_TEXT/UTF8
Codec ID/Info                            : UTF-8 Plain Text
Duration                                 : 1 h 35 min
Bit rate                                 : 15 b/s
Count of elements                        : 335
Stream size                              : 10.9 KiB (0%)
Title                                    : Arabic
Language                                 : Arabic
Default                                  : No
Forced                                   : No

Text #17
ID                                       : 19
Format                                   : UTF-8
Codec ID                                 : S_TEXT/UTF8
Codec ID/Info                            : UTF-8 Plain Text
Duration                                 : 1 h 35 min
Bit rate                                 : 10 b/s
Count of elements                        : 326
Stream size                              : 7.32 KiB (0%)
Title                                    : Czech
Language                                 : Czech
Default                                  : No
Forced                                   : No

Text #18
ID                                       : 20
Format                                   : UTF-8
Codec ID                                 : S_TEXT/UTF8
Codec ID/Info                            : UTF-8 Plain Text
Duration                                 : 1 h 35 min
Bit rate                                 : 10 b/s
Count of elements                        : 325
Stream size                              : 7.57 KiB (0%)
Title                                    : Indonesian
Language                                 : Indonesian
Default                                  : No
Forced                                   : No

Text #19
ID                                       : 21
Format                                   : UTF-8
Codec ID                                 : S_TEXT/UTF8
Codec ID/Info                            : UTF-8 Plain Text
Duration                                 : 1 h 35 min
Bit rate                                 : 11 b/s
Count of elements                        : 333
Stream size                              : 7.90 KiB (0%)
Title                                    : Malay
Language                                 : Malay
Default                                  : No
Forced                                   : No

Text #20
ID                                       : 22
Format                                   : UTF-8
Codec ID                                 : S_TEXT/UTF8
Codec ID/Info                            : UTF-8 Plain Text
Duration                                 : 1 h 35 min
Bit rate                                 : 14 b/s
Count of elements                        : 329
Stream size                              : 9.98 KiB (0%)
Title                                    : Vietnamese
Language                                 : Vietnamese
Default                                  : No
Forced                                   : No

Text #21
ID                                       : 23
Format                                   : UTF-8
Codec ID                                 : S_TEXT/UTF8
Codec ID/Info                            : UTF-8 Plain Text
Duration                                 : 1 h 35 min
Bit rate                                 : 10 b/s
Count of elements                        : 331
Stream size                              : 7.02 KiB (0%)
Title                                    : Cantonese
Language                                 : Chinese
Default                                  : No
Forced                                   : No

Text #22
ID                                       : 24
Format                                   : UTF-8
Codec ID                                 : S_TEXT/UTF8
Codec ID/Info                            : UTF-8 Plain Text
Duration                                 : 1 h 35 min
Bit rate                                 : 11 b/s
Count of elements                        : 331
Stream size                              : 7.76 KiB (0%)
Title                                    : Chinese (Simplified)
Language                                 : Chinese
Default                                  : No
Forced                                   : No

Text #23
ID                                       : 25
Format                                   : UTF-8
Codec ID                                 : S_TEXT/UTF8
Codec ID/Info                            : UTF-8 Plain Text
Duration                                 : 1 h 35 min
Bit rate                                 : 9 b/s
Count of elements                        : 330
Stream size                              : 6.65 KiB (0%)
Title                                    : Chinese (Traditional)
Language                                 : Chinese
Default                                  : No
Forced                                   : No

Text #24
ID                                       : 26
Format                                   : UTF-8
Codec ID                                 : S_TEXT/UTF8
Codec ID/Info                            : UTF-8 Plain Text
Duration                                 : 1 h 35 min
Bit rate                                 : 10 b/s
Count of elements                        : 346
Stream size                              : 7.52 KiB (0%)
Title                                    : Japanese
Language                                 : Japanese
Default                                  : No
Forced                                   : No

Menu
00:00:00.000                             : Scene 1
00:06:39.107                             : Scene 2
00:12:16.319                             : Scene 3
00:17:00.270                             : Scene 4
00:26:28.171                             : Scene 5
00:33:26.339                             : Scene 6
00:38:06.703                             : Scene 7
00:45:53.753                             : Scene 8
00:51:18.036                             : Scene 9
00:55:35.919                             : Scene 10
01:02:21.282                             : Scene 11
01:08:43.832                             : Scene 12
01:16:31.925                             : Scene 13
01:21:25.885                             : Scene 14
01:28:11.833                             : Scene 15




                                                                                                                                                                                                        
                                                                                                                                                                                                                                                                                                                                                                                                                                                                                                                                                                                                                                                                                                                                                                                                                                                        
e5d59223b14206c21cd617f23aba83e2.torrent (23.2 KB, 下载次数: 0)

回复

使用道具 举报

小黑屋|西西论坛

本网站所有资源来自网络,如无意中侵犯了您的权益,请发邮件至 [email protected],立即清除相关链接

GMT+8, 2021-7-27 09:44 , Processed in 0.162188 second(s), 17 queries .

Powered by Discuz! X3.2

© 2001-2013 Comsenz Inc.

快速回复 返回顶部 返回列表