西西论坛

 找回密码
 立即注册
搜索

[空中大灌篮:新传奇][纯净版][BT下载][WEB-MKV/15.91GB][中文字幕][4K-2160P][HDR版 ...

[复制链接]
admin 发表于 2021-7-17 20:06:11 | 显示全部楼层 |阅读模式
-->1c44e366a3db8bf4a5b47b355b4af9b4.jpg



◎译  名 空中大灌篮:新传奇 / 太空也入樽:改朝换代(港) / 太空也入樽2(港) / 怪物奇兵 全新世代(台) / 空中大灌篮2:新传奇 / 怪物奇兵2 / 宇宙大灌篮2 / 宇宙大灌篮:新传承 / Space Jam 2008 / Space Jam 2: A Jogada Continua / Space Jam Twenty 16
◎片  名 Space Jam: A New Legacy
◎年  代 2021
◎产  地 美国
◎类  别 喜剧 / 动画 / 运动
◎语  言 英语
◎片  长 120分钟
◎导  演 马尔科姆·D·李 Malcolm D. Lee (id:1014323)
◎编  剧 朱埃尔·泰勒 Juel Taylor (id:1405274)
       特伦斯·南斯 Terence Nance (id:1336173)
       蒂莫西·哈里斯 Timothy Harris (id:1010039)
       史蒂夫·鲁德尼克 Steve Rudnick (id:1447594)
       赫舍尔·魏因格罗德 Herschel Weingrod (id:1042057)
       莱奥·本韦努蒂 Leo Benvenuti (id:1303189)
       阿尔弗雷多·博泰洛 Alfredo Botello (id:1349924)
       安德鲁·道奇 Andrew Dodge (id:1341234)
       查克·琼斯 Chuck Jones (id:1054468)
       林诣彬 Justin Lin (id:1290066)
       威利?埃伯索尔 Willie Ebersol (id:1414027)
       基南·库格勒 Keenan Coogler (id:1459637)
◎演  员 勒布朗·詹姆斯 LeBron James (id:1016622)
       赞达亚 Zendaya (id:1325576)
       吉姆·卡明斯 Jim Cummings (id:1040525)
       索尼夸·马丁-格林 Sonequa Martin-Green (id:1327556)
       唐·钱德尔 Don Cheadle (id:1053573)
       弗雷德·塔特西奥 Fred Tatasciore (id:1320585)
       特蕾丝·麦克尼尔 Tress MacNeille (id:1120584)
       马丁·科勒巴 Martin Klebba (id:1010683)
       加布里埃尔·伊格莱西亚斯 Gabriel Iglesias (id:1009632)
       豪莎·罗克莫雷 Xosha Roquemore (id:1311904)
       艾瑞克·鲍扎 Eric Bauza (id:1347752)
       鲍伯·伯根 Bob Bergen (id:1065267)
       杰夫·伯格曼 Jeff Bergman (id:1009935)
       坎迪·米洛 Candi Milo (id:1121625)
       克里斯·戴维斯 Khris Davis (id:1390624)
       凯蒂·麦克凯布 Katie McCabe (id:1428179)
       斯凯勒·拜布尔 Skyler Bible (id:1405038)
       克里斯·保罗 Chris Paul (id:1259929)
        Peter Cornell (id:1235500)
       克莱·汤普森 Klay Thompson (id:1372896)
       德雷蒙德·格林 Draymond Green (id:1372897)
       Hassan Said Hassan Said (id:1191215)
       Erin Flannery Erin Flannery (id:1455553)
       德里克?吉尔伯特 Derrick Gilbert (id:1414026)
       G·莱恩·希尔曼 G. Lane Hillman (id:1241302)
       卡桑德拉·斯塔尔 Cassandra Starr (id:1336662)
       瑞恩·库格勒 Ryan Coogler (id:1326531)
       汉斯·季默 Hans Zimmer (id:1054386)
       萨尔瓦托雷·托蒂诺 Salvatore Totino (id:1443962)

◎标  签 篮球 / 体育 / 动画 / 美国 / 运动 / 喜剧 / 2021 / 电影

◎简  介
  故事讲述勒布朗与他的小儿子多姆被人工智能困在了“华纳兄弟电影宇宙”虚拟空间,为了能安全回家,他必须率兔八哥、罗拉兔和那些不守规矩的乐一通卡通,战胜一支全明星篮球队。这场对决是勒布朗人生的最大挑战,也将重新定义他与儿子间的关系,并让勒布朗领悟到“做自己”的真谛;乐一通的小伙伴们则要打破陈规,超常发挥自己的独特技能,令勒布朗都刮目相看。然而他们面对的,是一群前所未见、所向披靡的人工智能强化型对手“末日狂徒队”,勒布朗和乐一通们真的能成功击败他们吗?
General
Unique ID                                : 319409003319043443646791047293085013896 (0xF04BEFB7E76E67C8E017C58AF115D788)
Complete name                            : Space.Jam.ABBQDDQ.COM.mkv
Format                                   : Matroska
Format version                           : Version 4
File size                                : 15.9 GiB
Duration                                 : 1 h 55 min
Overall bit rate                         : 19.7 Mb/s
Encoded date                             : UTC 2021-07-16 07:45:48
Writing application                      : mkvmerge v58.0.0 ('Supper's Ready') 64-bit
Writing library                          : libebml v1.4.2 + libmatroska v1.6.4

Video
ID                                       : 1
Format                                   : HEVC
Format/Info                              : High Efficiency Video Coding
Format profile                           : Main @Main
HDR format                               : SMPTE ST 2086, HDR10 compatible
Codec ID                                 : V_MPEGH/ISO/HEVC
Duration                                 : 1 h 55 min
Bit rate                                 : 17.8 Mb/s
Width                                    : 3 840 pixels
Height                                   : 2 160 pixels
Display aspect ratio                     : 16:9
Frame rate mode                          : Constant
Frame rate                               : 23.976 (24000/1001) FPS
Color space                              : YUV
Chroma subsampling                       : 4:2:0
Bit depth                                : 10 bits
Bits/(Pixel*Frame)                       : 0.090
Stream size                              : 14.4 GiB (90%)
Writing library                          : x265 3.4hy:[Linux][GCC 7.5.0][64 bit] 10bit
Encoding settings                        : cpuid=1111039 / frame-threads=1 / wpp / no-pmode / no-pme / no-psnr / no-ssim / log-level=2 / input-csp=1 / input-res=3840x2160 / interlace=0 / total-frames=0 / level-idc=0 / high-tier=1 / uhd-bd=0 / ref=4 / no-allow-non-conformance / repeat-headers / annexb / no-aud / no-hrd / info / hash=0 / no-temporal-layers / no-open-gop / min-keyint=96 / keyint=96 / gop-lookahead=0 / bframes=3 / b-adapt=2 / b-pyramid / bframe-bias=0 / rc-lookahead=25 / lookahead-slices=4 / scenecut=40 / hist-scenecut=0 / radl=0 / no-splice / no-intra-refresh / ctu=64 / min-cu-size=8 / rect / no-amp / max-tu-size=32 / tu-inter-depth=1 / tu-intra-depth=1 / limit-tu=0 / rdoq-level=2 / dynamic-rd=0.00 / no-ssim-rd / signhide / no-tskip / nr-intra=0 / nr-inter=0 / no-constrained-intra / strong-intra-smoothing / max-merge=3 / limit-refs=3 / limit-modes / me=3 / subme=3 / merange=57 / temporal-mvp / no-frame-dup / no-hme / weightp / no-weightb / no-analyze-src-pics / deblock=0:0 / sao / no-sao-non-deblock / rd=4 / selective-sao=4 / no-early-skip / rskip / no-fast-intra / no-tskip-fast / no-cu-lossless / no-b-intra / no-splitrd-skip / rdpenalty=0 / psy-rd=2.00 / psy-rdoq=1.00 / no-rd-refine / no-lossless / cbqpoffs=0 / crqpoffs=0 / rc=abr / bitrate=18000 / qcomp=0.60 / qpstep=4 / stats-write=0 / stats-read=2 / cplxblur=20.0 / qblur=0.5 / vbv-maxrate=24500 / vbv-bufsize=24500 / vbv-init=0.6 / vbv-end=0.6 / vbv-end-fr-adj=0.0 / ipratio=1.40 / pbratio=1.30 / aq-mode=2 / aq-strength=1.00 / cutree / zone-count=0 / no-strict-cbr / qg-size=32 / no-rc-grain / qpmax=69 / qpmin=0 / no-const-vbv / sar=0 / overscan=0 / videoformat=5 / range=0 / colorprim=9 / transfer=16 / colormatrix=9 / chromaloc=0 / display-window=0 / master-display=G(13250,34500)B(7500,3000)R(34000,16000)WP(15635,16450)L(10000000,1) / cll=677,233 / min-luma=0 / max-luma=1023 / log2-max-poc-lsb=8 / vui-timing-info / vui-hrd-info / no-concatenation / slices=1 / no-opt-qp-pps / no-opt-ref-list-length-pps / no-multi-pass-opt-rps / scenecut-bias=0.05 / hist-threshold=0.01 / no-opt-cu-delta-qp / no-aq-motion / hdr10 / no-hdr10-opt / no-dhdr10-opt / no-idr-recovery-sei / analysis-reuse-level=0 / analysis-save-reuse-level=0 / analysis-load-reuse-level=0 / scale-factor=0 / refine-intra=0 / refine-inter=0 / refine-mv=1 / refine-ctu-distortion=0 / no-limit-sao / ctu-info=0 / no-lowpass-dct / refine-analysis-type=0 / copy-pic=1 / max-ausize-factor=1.0 / no-dynamic-refine / no-single-sei / no-hevc-aq / no-svt / no-field / qp-adaptation-range=1.00 / no-scenecut-aware-qpconformance-window-offsets / right=0 / bottom=0 / decoder-max-rate=0
Default                                  : Yes
Forced                                   : No
Color range                              : Limited
Color primaries                          : BT.2020
Transfer characteristics                 : PQ
Matrix coefficients                      : BT.2020 non-constant
Mastering display color primaries        : Display P3
Mastering display luminance              : min: 0.0001 cd/m2, max: 1000 cd/m2
Maximum Content Light Level              : 677 cd/m2
Maximum Frame-Average Light Level        : 233 cd/m2

Audio #1
ID                                       : 2
Format                                   : E-AC-3 JOC
Format/Info                              : Enhanced AC-3 with Joint Object Coding
Commercial name                          : Dolby Digital Plus with Dolby Atmos
Codec ID                                 : A_EAC3
Duration                                 : 1 h 55 min
Bit rate mode                            : Constant
Bit rate                                 : 768 kb/s
Channel(s)                               : 6 channels
Channel layout                           : L R C LFE Ls Rs
Sampling rate                            : 48.0 kHz
Frame rate                               : 31.250 FPS (1536 SPF)
Compression mode                         : Lossy
Stream size                              : 634 MiB (4%)
Title                                    : English - [ Original ] - [ Atmos ]
Language                                 : English
Service kind                             : Complete Main
Default                                  : Yes
Forced                                   : No
Complexity index                         : 16
Number of dynamic objects                : 15
Bed channel count                        : 1 channel
Bed channel configuration                : LFE

Audio #2
ID                                       : 3
Format                                   : AC-3
Format/Info                              : Audio Coding 3
Commercial name                          : Dolby Digital
Codec ID                                 : A_AC3
Duration                                 : 1 h 55 min
Bit rate mode                            : Constant
Bit rate                                 : 384 kb/s
Channel(s)                               : 2 channels
Channel layout                           : L R
Sampling rate                            : 48.0 kHz
Frame rate                               : 31.250 FPS (1536 SPF)
Compression mode                         : Lossy
Stream size                              : 317 MiB (2%)
Title                                    : English - [ Audio Description ]
Language                                 : English
Service kind                             : Complete Main
Default                                  : No
Forced                                   : No

Audio #3
ID                                       : 4
Format                                   : AC-3
Format/Info                              : Audio Coding 3
Commercial name                          : Dolby Digital
Codec ID                                 : A_AC3
Duration                                 : 1 h 55 min
Bit rate mode                            : Constant
Bit rate                                 : 384 kb/s
Channel(s)                               : 6 channels
Channel layout                           : L R C LFE Ls Rs
Sampling rate                            : 48.0 kHz
Frame rate                               : 31.250 FPS (1536 SPF)
Compression mode                         : Lossy
Stream size                              : 317 MiB (2%)
Title                                    : Espa?ol
Language                                 : Spanish
Service kind                             : Complete Main
Default                                  : No
Forced                                   : No

Audio #4
ID                                       : 5
Format                                   : AC-3
Format/Info                              : Audio Coding 3
Commercial name                          : Dolby Digital
Codec ID                                 : A_AC3
Duration                                 : 1 h 55 min
Bit rate mode                            : Constant
Bit rate                                 : 384 kb/s
Channel(s)                               : 6 channels
Channel layout                           : L R C LFE Ls Rs
Sampling rate                            : 48.0 kHz
Frame rate                               : 31.250 FPS (1536 SPF)
Compression mode                         : Lossy
Stream size                              : 317 MiB (2%)
Title                                    : Português (Brasil)
Language                                 : Portuguese
Service kind                             : Complete Main
Default                                  : Yes
Forced                                   : No

Text #1
ID                                       : 6
Format                                   : UTF-8
Codec ID                                 : S_TEXT/UTF8
Codec ID/Info                            : UTF-8 Plain Text
Duration                                 : 1 h 55 min
Bit rate                                 : 92 b/s
Count of elements                        : 3960
Stream size                              : 77.7 KiB (0%)
Title                                    : English
Language                                 : English
Default                                  : Yes
Forced                                   : No

Text #2
ID                                       : 7
Format                                   : UTF-8
Codec ID                                 : S_TEXT/UTF8
Codec ID/Info                            : UTF-8 Plain Text
Duration                                 : 1 h 55 min
Bit rate                                 : 75 b/s
Count of elements                        : 3736
Stream size                              : 63.4 KiB (0%)
Title                                    : Espa?ol
Language                                 : Spanish
Default                                  : Yes
Forced                                   : No

Text #3
ID                                       : 8
Format                                   : UTF-8
Codec ID                                 : S_TEXT/UTF8
Codec ID/Info                            : UTF-8 Plain Text
Duration                                 : 1 h 55 min
Bit rate                                 : 63 b/s
Count of elements                        : 2719
Stream size                              : 53.7 KiB (0%)
Title                                    : Português (Brasil)
Language                                 : Portuguese
Default                                  : Yes
Forced                                   : No




                                                                                                                                                                                                        
                                                                                                                                                                                                                                                                                                                                                                                                                                                                                                                                                                                                                                                                                                                                                                                                                                                        
7665eb0cb168cdfc8d46ce8789947931.torrent (44.51 KB, 下载次数: 0)

回复

使用道具 举报

小黑屋|西西论坛

本网站所有资源来自网络,如无意中侵犯了您的权益,请发邮件至 [email protected],立即清除相关链接

GMT+8, 2021-7-27 08:46 , Processed in 0.138235 second(s), 17 queries .

Powered by Discuz! X3.2

© 2001-2013 Comsenz Inc.

快速回复 返回顶部 返回列表