西西论坛

 找回密码
 立即注册
搜索

[寂静之地2][纯净版][BT下载][WEB-MKV/3.26GB][1080P][惊悚,恐怖,美国,科幻,惊恐] ... ...

[复制链接]
admin 发表于 2021-7-17 20:06:04 | 显示全部楼层 |阅读模式
-->fa2d806763f15762df0ba9d1a8d00814.jpg



◎译  名 寂静之地2 / 无声绝境II(港) / 噤界II(台) / A Quiet Place 2
◎片  名 A Quiet Place: Part II
◎年  代 2021
◎产  地 美国
◎类  别 科幻 / 惊悚 / 恐怖
◎语  言 英语
◎上映日期 2021-05-28(中国大陆/美国)
◎片  长 97分钟
◎导  演 约翰·卡拉辛斯基 John Krasinski (id:1027146)
◎编  剧 约翰·卡拉辛斯基 John Krasinski (id:1027146)
       斯科特·贝克 Scott Beck (id:1029358)
       布莱恩·伍兹 Bryan Woods (id:1052734)
◎演  员 艾米莉·布朗特 Emily Blunt (id:1041022)
       基里安·墨菲 Cillian Murphy (id:1047992)
       米利森特·西蒙兹 Millicent Simmonds (id:1374192)
       诺亚·尤佩 Noah Jupe (id:1356120)
       约翰·卡拉辛斯基 John Krasinski (id:1027146)
       杰曼·翰苏 Djimon Hounsou (id:1044880)
       奥基里特·奥诺多瓦 Okieriete Onaodowan (id:1382437)
       斯科特·麦克纳里 Scoot McNairy (id:1302972)
       扎卡里·戈林格 Zachary Golinger (id:1457353)
       布莱克·德隆 Blake DeLong (id:1457674)
       加里·桑当 Gary Sundown (id:1457675)
       阿什利·戴克 Ashley Dyke (id:1366174)
       韦恩·杜瓦尔 Wayne Duvall (id:1019154)
       克兹托夫·克里斯·马杜拉 Krzysztof 'Kris' Mardula (id:1419252)
       阿利森·西格 Allyson Seeger (id:1457351)
       乔安·佩里塔诺 JoAnn Perritano (id:1392782)
       迈克尔·贝 Michael Bay (id:1027776)
       安德鲁·福姆 Andrew Form (id:1457352)
       布拉德利·福勒 Bradley Fuller (id:1284314)
       约翰·卡拉辛斯基 John Krasinski (id:1027146)
       马可·贝尔崔米 Marco Beltrami (id:1027998)
       波莉·摩根 Polly Morgan (id:1429254)
       劳拉·罗森塔尔 Laura Rosenthal (id:1296112)
       杰西·冈作 Jess Gonchor (id:1010149)
       南茜·黑格 Nancy Haigh (id:1285800)
       卡西娅·瓦利卡-麦蒙 Kasia Walicka-Maimone (id:1290762)

◎标  签 惊悚 / 恐怖 / 美国 / 科幻 / 惊恐 / 2021 / 悬疑 / 超自然

◎简  介
  故事紧承上一部展开。在丈夫为保护家人牺牲后,伊芙琳(艾米莉·布朗特 饰)不得不独自带着孩子们(米莉森·西蒙斯、诺亚·尤佩 饰)面对全新的生存挑战。他们将被迫离开家园,踏上一段未知的旅途。在无声的世界里,除了要躲避“猎声怪物”的捕杀,铺满细沙的道路尽头还暗藏着新的危机。
General
Unique ID                                : 59820830756786948252274005469469149692 (0x2D0112AB3ADE06A4BD6557C3F32909FC)
Complete name                            : A.QBBQDDQ.COM.mkv
Format                                   : Matroska
Format version                           : Version 4
File size                                : 3.26 GiB
Duration                                 : 1 h 37 min
Overall bit rate                         : 4 807 kb/s
Encoded date                             : UTC 2021-07-16 11:27:52
Writing application                      : mkvmerge v56.1.0 ('My Friend') 64-bit
Writing library                          : libebml v1.4.2 + libmatroska v1.6.4

Video
ID                                       : 1
Format                                   : AVC
Format/Info                              : Advanced Video Codec
Format profile                           :
Format settings                          : CABAC / 4 Ref Frames
Format settings, CABAC                   : Yes
Format settings, Reference frames        : 4 frames
Codec ID                                 : V_MPEG4/ISO/AVC
Duration                                 : 1 h 37 min
Bit rate                                 : 4 500 kb/s
Width                                    : 1 920 pixels
Height                                   : 1 080 pixels
Display aspect ratio                     : 16:9
Frame rate mode                          : Constant
Frame rate                               : 23.976 (24000/1001) FPS
Color space                              : YUV
Chroma subsampling                       : 4:2:0
Bit depth                                : 8 bits
Scan type                                : Progressive
Bits/(Pixel*Frame)                       : 0.091
Stream size                              : 3.00 GiB (92%)
Writing library                          : x264 core 161
Encoding settings                        : cabac=1 / ref=4 / deblock=1:0:0 / analyse=0x3:0x113 / me=hex / subme=8 / psy=1 / psy_rd=1.00:0.00 / mixed_ref=1 / me_range=16 / chroma_me=1 / trellis=2 / 8x8dct=1 / cqm=0 / deadzone=21,11 / fast_pskip=1 / chroma_qp_offset=-2 / threads=6 / lookahead_threads=1 / sliced_threads=0 / nr=0 / decimate=1 / interlaced=0 / bluray_compat=0 / stitchable=1 / constrained_intra=0 / bframes=3 / b_pyramid=2 / b_adapt=1 / b_bias=0 / direct=3 / weightb=1 / open_gop=0 / weightp=2 / keyint=48 / keyint_min=4 / scenecut=0 / intra_refresh=0 / rc_lookahead=48 / rc=2pass / mbtree=1 / bitrate=4500 / ratetol=1.0 / qcomp=0.60 / qpmin=0 / qpmax=69 / qpstep=4 / cplxblur=20.0 / qblur=0.5 / vbv_maxrate=5400 / vbv_bufsize=4500 / nal_hrd=none / filler=0 / ip_ratio=1.40 / aq=1:1.00
Default                                  : Yes
Forced                                   : No

Audio
ID                                       : 2
Format                                   : AC-3
Format/Info                              : Audio Coding 3
Commercial name                          : Dolby Digital
Codec ID                                 : A_AC3
Duration                                 : 1 h 37 min
Bit rate mode                            : Constant
Bit rate                                 : 384 kb/s
Channel(s)                               : 6 channels
Channel layout                           : L R C LFE Ls Rs
Sampling rate                            : 48.0 kHz
Frame rate                               : 31.250 FPS (1536 SPF)
Compression mode                         : Lossy
Stream size                              : 266 MiB (8%)
Language                                 : English
Service kind                             : Complete Main
Default                                  : Yes
Forced                                   : No




                                                                                                                                                                                                        
                                                                                                                                                                                                                                                                                                                                                                                                                                                                                                                                                                                                                                                                                                                                                                                                                                                        
609a92b48e92380210f014b4747f4247.torrent (12.84 KB, 下载次数: 0)

回复

使用道具 举报

小黑屋|西西论坛

本网站所有资源来自网络,如无意中侵犯了您的权益,请发邮件至 [email protected],立即清除相关链接

GMT+8, 2021-7-27 09:52 , Processed in 0.143206 second(s), 17 queries .

Powered by Discuz! X3.2

© 2001-2013 Comsenz Inc.

快速回复 返回顶部 返回列表