西西论坛

 找回密码
 立即注册
搜索

[狂鳄海啸][纯净版][BT下载][WEB-MKV/2.33GB][4K-2160P][灾难,鳄鱼,人性,海啸,怪兽,奸 ...

[复制链接]
admin 发表于 2021-7-17 20:05:14 | 显示全部楼层 |阅读模式
-->be1af8b419006652594f5b3ad503fd7d.jpg



◎译  名 狂鳄海啸
◎年  代 2021
◎产  地 中国大陆
◎类  别 灾难
◎语  言 汉语普通话
◎上映日期 2021-07-16(中国大陆)
◎导  演 周九钦 TaylorC (id:1386660)
◎演  员 荣飞 Fei Rong (id:1449563)
       王影璐 Yinglu Wang (id:1447805)
       刘锡明 Sek-Ming Lau (id:1317106)
       王李丹妮 Daniella Wang (id:1323199)
       李洋 Yang Li (id:1397537)
       霍卫民 Weimin Huo (id:1350890)
       希童 Tong Xi (id:1416482)
       李延 Yan Li (id:1353889)

◎标  签 灾难 / 鳄鱼 / 人性 / 海啸 / 怪兽 / 奸商 / 国产 / 动物

◎简  介
  《狂鳄海啸》讲述了在东南亚某国打拼的华人姜芃(荣飞饰),在妻子离世后,和正值叛逆期的女儿姜小湖(王影璐饰)相依为命,在曲折的经历中战胜邪恶,回归平静和谐的生活的故事。
General
Complete name                            : 狂鳄海啸
Format                                   : MPEG-4
Format profile                           : Base Media
Codec ID                                 : isom (isom/iso2/mp41)
File size                                : 2.33 GiB
Duration                                 : 1 h 18 min
Overall bit rate mode                    : Variable
Overall bit rate                         : 4 273 kb/s
Writing application                      : Lavf58.32.104

Video
ID                                       : 1
Format                                   : HEVC
Format/Info                              : High Efficiency Video Coding
Format profile                           : @Main
Codec ID                                 : hev1
Codec ID/Info                            : High Efficiency Video Coding
Duration                                 : 1 h 18 min
Bit rate                                 : 4 078 kb/s
Width                                    : 3 840 pixels
Height                                   : 1 632 pixels
Display aspect ratio                     : 2.35:1
Frame rate mode                          : Constant
Frame rate                               : 24.000 FPS
Color space                              : YUV
Chroma subsampling                       : 4:2:0
Bit depth                                : 8 bits
Bits/(Pixel*Frame)                       : 0.027
Stream size                              : 2.22 GiB (95%)
Codec configuration box                  : hvcC

Audio
ID                                       : 2
Format                                   : AAC LC
Format/Info                              : Advanced Audio Codec Low Complexity
Codec ID                                 : mp4a-40-2
Duration                                 : 1 h 18 min
Bit rate mode                            : Variable
Bit rate                                 : 192 kb/s
Channel(s)                               : 2 channels
Channel layout                           : L R
Sampling rate                            : 44.1 kHz
Frame rate                               : 43.066 FPS (1024 SPF)
Compression mode                         : Lossy
Stream size                              : 106 MiB (4%)
Default                                  : Yes
Alternate group                          : 1




                                                                                                                                                                                                        
                                                                                                                                                                                                                                                                                                                                                                                                                                                                                                                                                                                                                                                                                                                                                                                                                                                        
63fd3e38fa1c5cc0805bd9c50cc8ef0e.torrent (10.51 KB, 下载次数: 0)

回复

使用道具 举报

小黑屋|西西论坛

本网站所有资源来自网络,如无意中侵犯了您的权益,请发邮件至 [email protected],立即清除相关链接

GMT+8, 2021-7-27 08:36 , Processed in 0.151951 second(s), 17 queries .

Powered by Discuz! X3.2

© 2001-2013 Comsenz Inc.

快速回复 返回顶部 返回列表