西西论坛

 找回密码
 立即注册
搜索

[雾山][纯净版][BT下载][WEB-MKV/9.04GB][国语音轨][4K-2160P][动作,越南,复仇,犯罪,. ...

[复制链接]
admin 发表于 7 天前 | 显示全部楼层 |阅读模式
-->584180cf34e64e7e2bea2a970c8feb83.jpg



◎译  名 雾山 / The Foggy Mountain
◎片  名 ??nh Mù S??ng
◎年  代 2020
◎产  地 越南
◎类  别 动作
◎语  言 越南语
◎上映日期 2020-07-17(越南)
◎演  员 石金龙 Thach Kim Long (id:1385500)

◎标  签 动作 / 越南 / 复仇 / 犯罪 / 东亚影视 / 2020s / 剧情 / 暴力

◎简  介
  因为妻子的意外身亡,皮(Phi)一位拳师,决定返回越南,为妻子报仇、血债血偿。在他越南家乡的村庄里,他不但确认了凶手是一个名叫巴劳的当地一霸,同时,还发现了隐藏在其背后的秘密。命运又一次让皮面临选择——是只身为妻子报仇?还是选择舍弃个人恩怨而保护家乡的村民?
General
Unique ID                                : 140379598432573083448290117477100898416 (0x699C2091815BD8C954236243679B4870)
Complete name                            : 雾山M.mkv
Format                                   : Matroska
Format version                           : Version 4
File size                                : 9.04 GiB
Duration                                 : 1 h 26 min
Overall bit rate                         : 14.9 Mb/s
Encoded date                             : UTC 2021-07-07 11:56:25
Writing application                      : mkvmerge v40.0.0 ('Old Town Road + Pony') 64-bit
Writing library                          : libebml v1.3.9 + libmatroska v1.5.2

Video
ID                                       : 3
Format                                   : HEVC
Format/Info                              : High Efficiency Video Coding
Format profile                           : @Main
Codec ID                                 : V_MPEGH/ISO/HEVC
Duration                                 : 1 h 26 min
Bit rate                                 : 14.4 Mb/s
Width                                    : 3 840 pixels
Height                                   : 1 616 pixels
Display aspect ratio                     : 2.40:1
Frame rate mode                          : Constant
Frame rate                               : 24.000 FPS
Color space                              : YUV
Chroma subsampling                       : 4:2:0
Bit depth                                : 8 bits
Bits/(Pixel*Frame)                       : 0.097
Stream size                              : 8.73 GiB (97%)
Default                                  : Yes
Forced                                   : No

Audio #1
ID                                       : 1
Format                                   : E-AC-3
Format/Info                              : Enhanced AC-3
Commercial name                          : Dolby Digital Plus
Codec ID                                 : A_EAC3
Duration                                 : 1 h 26 min
Bit rate mode                            : Constant
Bit rate                                 : 256 kb/s
Channel(s)                               : 6 channels
Channel layout                           : L R C LFE Ls Rs
Sampling rate                            : 48.0 kHz
Frame rate                               : 31.250 FPS (1536 SPF)
Compression mode                         : Lossy
Stream size                              : 159 MiB (2%)
Title                                    : Mandarin
Language                                 : Chinese
Service kind                             : Complete Main
Default                                  : Yes
Forced                                   : No

Audio #2
ID                                       : 2
Format                                   : E-AC-3
Format/Info                              : Enhanced AC-3
Commercial name                          : Dolby Digital Plus
Codec ID                                 : A_EAC3
Duration                                 : 1 h 26 min
Bit rate mode                            : Constant
Bit rate                                 : 256 kb/s
Channel(s)                               : 6 channels
Channel layout                           : L R C LFE Ls Rs
Sampling rate                            : 48.0 kHz
Frame rate                               : 31.250 FPS (1536 SPF)
Compression mode                         : Lossy
Stream size                              : 159 MiB (2%)
Language                                 : Vietnamese
Service kind                             : Complete Main
Default                                  : No
Forced                                   : No




                                                                                                                                                                                                        
                                                                                                                                                                                                                                                                                                                                                                                                                                                                                                                                                                                                                                                                                                                                                                                                                                                        
c6aa1fb4674e2f560d86b8aa236625b5.torrent (27.31 KB, 下载次数: 0)

回复

使用道具 举报

小黑屋|西西论坛

本网站所有资源来自网络,如无意中侵犯了您的权益,请发邮件至 [email protected],立即清除相关链接

GMT+8, 2021-7-24 06:19 , Processed in 0.154071 second(s), 17 queries .

Powered by Discuz! X3.2

© 2001-2013 Comsenz Inc.

快速回复 返回顶部 返回列表