西西论坛

 找回密码
 立即注册
搜索

[河豚][纯净版][BT下载][WEB-MKV/2.92GB][4K-2160P][犯罪,悬疑/黑色,人性,钟欣潼,阿娇 ...

[复制链接]
admin 发表于 2021-7-17 20:05:07 | 显示全部楼层 |阅读模式
-->cdc1c7d4f2a3841ba416c2ef70f720db.jpg



◎译  名 河豚 / Pufferfish
◎年  代 2021
◎产  地 中国大陆
◎类  别 剧情
◎语  言 汉语普通话
◎上映日期 2021-07-08(中国大陆)
◎片  长 86分钟
◎编  剧 郑十凝 Shi-ning Zheng (id:1349570)
◎演  员 钟欣潼 Gillian Chung (id:1005138)
       张睿 Rui Zhang (id:1313958)
       张天其 Tianqi Zhang (id:1318375)
       蒙亭宜 Tingyi Meng (id:1316715)

◎标  签 犯罪 / 悬疑/黑色 / 人性 / 钟欣潼 / 阿娇 / 国产 / 2021 / 华语电影

◎简  介
  南方某市法院开庭审理了一起毒杀案,被告人蒋漫枝(钟欣潼 饰)涉嫌用河豚毒素杀害其丈夫柳慕阳(张睿 饰)。辩护人栾珠(蒙亭宜 饰)坚称柳慕阳是自己误食了毒酸奶而非预谋杀害,此时另一条线索表明,八年前的一起强奸案,被害人就是如今的蒋漫枝,而强奸犯许一城竟然和被害者柳慕阳长得一模一样,千丝万缕的联系预示着这两起案件远没有那么简单。蒋漫枝为何会爱上曾性侵过自己的人,她又为何会再次痛下杀手?
General
Complete name                            : 河豚
Format                                   : MPEG-4
Format profile                           : Base Media
Codec ID                                 : isom (isom/iso2/mp41)
File size                                : 2.92 GiB
Duration                                 : 1 h 26 min
Overall bit rate                         : 4 837 kb/s
Recorded date                            : 2021-07-08T15:35:56.2386415+08:00
Writing application                      : Lavf58.32.104

Video
ID                                       : 1
Format                                   : HEVC
Format/Info                              : High Efficiency Video Coding
Format profile                           : @Main
Codec ID                                 : hev1
Codec ID/Info                            : High Efficiency Video Coding
Duration                                 : 1 h 26 min
Bit rate                                 : 4 640 kb/s
Width                                    : 3 840 pixels
Height                                   : 1 608 pixels
Display aspect ratio                     : 2.40:1
Frame rate mode                          : Constant
Frame rate                               : 25.000 FPS
Color space                              : YUV
Chroma subsampling                       : 4:2:0
Bit depth                                : 8 bits
Bits/(Pixel*Frame)                       : 0.030
Stream size                              : 2.80 GiB (96%)
Codec configuration box                  : hvcC

Audio
ID                                       : 2
Format                                   : AAC LC
Format/Info                              : Advanced Audio Codec Low Complexity
Codec ID                                 : mp4a-40-2
Duration                                 : 1 h 26 min
Bit rate mode                            : Constant
Bit rate                                 : 192 kb/s
Channel(s)                               : 2 channels
Channel layout                           : L R
Sampling rate                            : 44.1 kHz
Frame rate                               : 43.066 FPS (1024 SPF)
Compression mode                         : Lossy
Stream size                              : 118 MiB (4%)
Default                                  : Yes
Alternate group                          : 1




                                                                                                                                                                                                        
                                                                                                                                                                                                                                                                                                                                                                                                                                                                                                                                                                                                                                                                                                                                                                                                                                                        
8fe1c433168bd825a61692048820cb77.torrent (11.99 KB, 下载次数: 0)

回复

使用道具 举报

小黑屋|西西论坛

本网站所有资源来自网络,如无意中侵犯了您的权益,请发邮件至 [email protected],立即清除相关链接

GMT+8, 2021-7-27 09:39 , Processed in 0.140288 second(s), 17 queries .

Powered by Discuz! X3.2

© 2001-2013 Comsenz Inc.

快速回复 返回顶部 返回列表