西西论坛

 找回密码
 立即注册
搜索

[雾山][纯净版][BT下载][WEB-MKV/1.47GB][国语音轨][1080P][动作,越南,复仇,犯罪,东亚 ...

[复制链接]
admin 发表于 7 天前 | 显示全部楼层 |阅读模式
-->72905383e4e986965ffde68df9f9adcf.jpg



◎译  名 雾山 / The Foggy Mountain
◎片  名 ??nh Mù S??ng
◎年  代 2020
◎产  地 越南
◎类  别 动作
◎语  言 越南语
◎上映日期 2020-07-17(越南)
◎演  员 石金龙 Thach Kim Long (id:1385500)

◎标  签 动作 / 越南 / 复仇 / 犯罪 / 东亚影视 / 2020s / 剧情 / 暴力

◎简  介
  因为妻子的意外身亡,皮(Phi)一位拳师,决定返回越南,为妻子报仇、血债血偿。在他越南家乡的村庄里,他不但确认了凶手是一个名叫巴劳的当地一霸,同时,还发现了隐藏在其背后的秘密。命运又一次让皮面临选择——是只身为妻子报仇?还是选择舍弃个人恩怨而保护家乡的村民?
General
Unique ID                                : 27853068905283183913603919675397492683 (0x14F44E526599D5006BF79024FFF3CFCB)
Complete name                            : 雾山M.mkv
Format                                   : Matroska
Format version                           : Version 4
File size                                : 1.47 GiB
Duration                                 : 1 h 26 min
Overall bit rate                         : 2 428 kb/s
Encoded date                             : UTC 2021-07-07 11:40:42
Writing application                      : mkvmerge v40.0.0 ('Old Town Road + Pony') 64-bit
Writing library                          : libebml v1.3.9 + libmatroska v1.5.2

Video
ID                                       : 1
Format                                   : AVC
Format/Info                              : Advanced Video Codec
Format profile                           :
Format settings                          : CABAC / 3 Ref Frames
Format settings, CABAC                   : Yes
Format settings, Reference frames        : 3 frames
Codec ID                                 : V_MPEG4/ISO/AVC
Duration                                 : 1 h 26 min
Bit rate                                 : 1 915 kb/s
Width                                    : 1 920 pixels
Height                                   : 808 pixels
Display aspect ratio                     : 2.40:1
Frame rate mode                          : Constant
Frame rate                               : 24.000 FPS
Color space                              : YUV
Chroma subsampling                       : 4:2:0
Bit depth                                : 8 bits
Scan type                                : Progressive
Bits/(Pixel*Frame)                       : 0.051
Stream size                              : 1.16 GiB (79%)
Writing library                          : qiyi.com vtc-test
Default                                  : Yes
Forced                                   : No
Color range                              : Limited
Color primaries                          : BT.709
Transfer characteristics                 : BT.709
Matrix coefficients                      : BT.709

Audio #1
ID                                       : 2
Format                                   : E-AC-3
Format/Info                              : Enhanced AC-3
Commercial name                          : Dolby Digital Plus
Codec ID                                 : A_EAC3
Duration                                 : 1 h 26 min
Bit rate mode                            : Constant
Bit rate                                 : 256 kb/s
Channel(s)                               : 6 channels
Channel layout                           : L R C LFE Ls Rs
Sampling rate                            : 48.0 kHz
Frame rate                               : 31.250 FPS (1536 SPF)
Compression mode                         : Lossy
Stream size                              : 159 MiB (11%)
Title                                    : Mandarin
Language                                 : Chinese
Service kind                             : Complete Main
Default                                  : Yes
Forced                                   : No

Audio #2
ID                                       : 3
Format                                   : E-AC-3
Format/Info                              : Enhanced AC-3
Commercial name                          : Dolby Digital Plus
Codec ID                                 : A_EAC3
Duration                                 : 1 h 26 min
Bit rate mode                            : Constant
Bit rate                                 : 256 kb/s
Channel(s)                               : 6 channels
Channel layout                           : L R C LFE Ls Rs
Sampling rate                            : 48.0 kHz
Frame rate                               : 31.250 FPS (1536 SPF)
Compression mode                         : Lossy
Stream size                              : 159 MiB (11%)
Language                                 : Vietnamese
Service kind                             : Complete Main
Default                                  : No
Forced                                   : No




                                                                                                                                                                                                        
                                                                                                                                                                                                                                                                                                                                                                                                                                                                                                                                                                                                                                                                                                                                                                                                                                                        
d5ead389166411350a3b15eff3a24cdb.torrent (8.39 KB, 下载次数: 0)

回复

使用道具 举报

小黑屋|西西论坛

本网站所有资源来自网络,如无意中侵犯了您的权益,请发邮件至 [email protected],立即清除相关链接

GMT+8, 2021-7-24 04:54 , Processed in 0.178034 second(s), 17 queries .

Powered by Discuz! X3.2

© 2001-2013 Comsenz Inc.

快速回复 返回顶部 返回列表