西西论坛

 找回密码
 立即注册
搜索

[大汉张骞][纯净版][BT下载][WEB-MP4/1.48GB][1080P][大陆,历史,古装,中国,中国电影] ...

[复制链接]
admin 发表于 2021-7-17 20:04:51 | 显示全部楼层 |阅读模式
-->732af8002a2e0e18cc42f4460b2019f7.jpg



◎译  名 大汉张骞
◎年  代 2021
◎产  地 中国大陆
◎类  别 悬疑 / 历史 / 武侠
◎语  言 汉语普通话
◎上映日期 2021-07-13(中国大陆)
◎演  员 张宁江 Ningjiang Zhang (id:1321998)
       石兆琪 Zhaoqi Shi (id:1315058)
       张凯元 Kaiyuan Zhang (id:1443523)

◎标  签 大陆 / 历史 / 2021 / 古装 / 中国 / 中国电影 / 中国大陆 / 2021等评分

◎简  介
  公元前139年,张骞率领百余人组成的使团出使西域,中途遭匈奴截杀,张骞与向导堂邑父沦为阶下囚,被困于匈奴十年之久。这日,张骞与堂邑父正照常奉命测绘地图,却不料偶遇大汉斥候耿乐。两军交战,耿乐被俘,误会张骞已经叛变。张骞与同伴的出逃计划因此被打乱……
General
Complete name                            : 大汉张骞.Zhang
Format                                   : MPEG-4
Format profile                           : Base Media
Codec ID                                 : isom (isom/iso2/avc1/mp41)
File size                                : 1.48 GiB
Duration                                 : 1 h 36 min
Overall bit rate                         : 2 191 kb/s
Writing application                      : Lavf58.12.100

Video
ID                                       : 1
Format                                   : AVC
Format/Info                              : Advanced Video Codec
Format profile                           :
Format settings                          : CABAC / 3 Ref Frames
Format settings, CABAC                   : Yes
Format settings, Reference frames        : 3 frames
Codec ID                                 : avc1
Codec ID/Info                            : Advanced Video Coding
Duration                                 : 1 h 36 min
Bit rate                                 : 1 994 kb/s
Width                                    : 1 920 pixels
Height                                   : 720 pixels
Display aspect ratio                     : 2.667
Frame rate mode                          : Constant
Frame rate                               : 25.000 FPS
Color space                              : YUV
Chroma subsampling                       : 4:2:0
Bit depth                                : 8 bits
Scan type                                : Progressive
Bits/(Pixel*Frame)                       : 0.058
Stream size                              : 1.35 GiB (91%)
Color range                              : Limited
Color primaries                          : BT.709
Transfer characteristics                 : BT.709
Matrix coefficients                      : BT.709
Codec configuration box                  : avcC

Audio
ID                                       : 2
Format                                   : AAC LC
Format/Info                              : Advanced Audio Codec Low Complexity
Codec ID                                 : mp4a-40-2
Duration                                 : 1 h 36 min
Bit rate mode                            : Constant
Bit rate                                 : 192 kb/s
Channel(s)                               : 2 channels
Channel layout                           : L R
Sampling rate                            : 44.1 kHz
Frame rate                               : 43.066 FPS (1024 SPF)
Compression mode                         : Lossy
Stream size                              : 131 MiB (9%)
Default                                  : Yes
Alternate group                          : 1




                                                                                                                                                                                                        
                                                                                                                                                                                                                                                                                                                                                                                                                                                                                                                                                                                                                                                                                                                                                                                                                                                        
03922c9256876fe63a9e36181ff8a083.torrent (8.39 KB, 下载次数: 0)

回复

使用道具 举报

小黑屋|西西论坛

本网站所有资源来自网络,如无意中侵犯了您的权益,请发邮件至 [email protected],立即清除相关链接

GMT+8, 2021-7-27 08:28 , Processed in 0.205657 second(s), 17 queries .

Powered by Discuz! X3.2

© 2001-2013 Comsenz Inc.

快速回复 返回顶部 返回列表