西西论坛

 找回密码
 立即注册
搜索

[西游记之再世妖王][纯净版][BT下载][WEB-MKV/1.80GB][国语音轨/简繁字幕][1080P][国 ...

[复制链接]
admin 发表于 2021-7-17 20:04:46 | 显示全部楼层 |阅读模式
-->ce2371899ef985bad84c69bca93a9253.jpg



◎译  名 西游记之再世妖王 / 西游记之人参果 / Monkey King Reborn
◎年  代 2021
◎产  地 中国大陆
◎类  别 动作 / 动画 / 奇幻
◎语  言 汉语普通话
◎上映日期 2021-04-02(中国大陆)
◎片  长 95分钟
◎导  演 王云飞 Yunfei Wang (id:1321732)
◎编  剧 吴晓宇 Xiaoyu Wu (id:1355173)
       王云飞 Yunfei Wang (id:1321732)
◎演  员 边江 Jiang Bian (id:1339972)
       张磊 Lei Zhang (id:1340809)
       蔡海婷 Haiting Cai (id:1454097)
       苏尚卿 Shangqing Su (id:1359405)
       张赫 He Zhang (id:1406312)
       林强 Qiang Lin (id:1340112)
       刘思岑 Sicen Liu (id:1332875)
       王晨光 Chenguang Wang (id:1385999)
       宝木中阳 Ming Song (id:1334350)
       章斌 Bin Zhang (id:1408943)
       常进 Jin Chang (id:1454099)
       图特哈蒙 Sheng Feng (id:1343032)
       张遥函 Yaohan Zhang (id:1384029)
       白雪岑 Xuecen Bai (id:1360429)
       邱秋 Qiu Qiu (id:1384857)
       常文涛 Wentao Chang (id:1454100)
       李嘉祥 Jiaxiang Li (id:1454101)
       王海峰 Hoifung Wong (id:1382273)

◎标  签 国漫 / 齐天大圣 / 西游 / 神话 / 中国大陆 / 奇幻 / 古风 / 2021

◎简  介
  混沌初开之时,世上的第一只妖降世,名元蒂(张磊 配音),被奉为妖祖。千百万年后,昔日妖王孙悟空(边江 配音)被唐僧(苏尚卿 饰)从五行山下救出,悟空答应保护唐僧,前往西天取经。而传说中的妖祖元蒂再次现世,三界岌岌可危。两代妖王注定终极一战,但这次,孙悟空遇上了真正的劲敌。
General
Unique ID                                : 115533978473883499032476171211947593025 (0x56EB08ED7BAB4427AD99F36D1DC74D41)
Complete name                            : BQDDQ.COM.mkv
Format                                   : Matroska
Format version                           : Version 4
File size                                : 1.80 GiB
Duration                                 : 1 h 32 min
Overall bit rate                         : 2 775 kb/s
Encoded date                             : UTC 2021-07-15 03:35:20
Writing application                      : mkvmerge v58.0.0 ('Supper's Ready') 64-bit
Writing library                          : libebml v1.4.2 + libmatroska v1.6.4

Video
ID                                       : 1
Format                                   : HEVC
Format/Info                              : High Efficiency Video Coding
Format profile                           : @Main
Codec ID                                 : V_MPEGH/ISO/HEVC
Duration                                 : 1 h 32 min
Bit rate                                 : 2 581 kb/s
Width                                    : 1 920 pixels
Height                                   : 816 pixels
Display aspect ratio                     : 2.35:1
Frame rate mode                          : Constant
Frame rate                               : 24.000 FPS
Color space                              : YUV
Chroma subsampling                       : 4:2:0
Bit depth                                : 8 bits
Bits/(Pixel*Frame)                       : 0.069
Stream size                              : 1.67 GiB (93%)
Default                                  : Yes
Forced                                   : No

Audio
ID                                       : 2
Format                                   : AAC LC
Format/Info                              : Advanced Audio Codec Low Complexity
Codec ID                                 : A_AAC-2
Duration                                 : 1 h 32 min
Bit rate                                 : 192 kb/s
Channel(s)                               : 2 channels
Channel layout                           : L R
Sampling rate                            : 44.1 kHz
Frame rate                               : 43.066 FPS (1024 SPF)
Compression mode                         : Lossy
Stream size                              : 126 MiB (7%)
Title                                    : 国语
Language                                 : Chinese
Default                                  : Yes
Forced                                   : No

Text #1
ID                                       : 3
Format                                   : UTF-8
Codec ID                                 : S_TEXT/UTF8
Codec ID/Info                            : UTF-8 Plain Text
Duration                                 : 1 h 31 min
Bit rate                                 : 46 b/s
Count of elements                        : 1714
Stream size                              : 31.4 KiB (0%)
Title                                    : 简体中文
Language                                 : Chinese
Default                                  : Yes
Forced                                   : No

Text #2
ID                                       : 4
Format                                   : UTF-8
Codec ID                                 : S_TEXT/UTF8
Codec ID/Info                            : UTF-8 Plain Text
Duration                                 : 1 h 31 min
Bit rate                                 : 46 b/s
Count of elements                        : 1714
Stream size                              : 31.4 KiB (0%)
Title                                    : 繁体中文
Language                                 : Chinese
Default                                  : No
Forced                                   : No

Text #3
ID                                       : 5
Format                                   : UTF-8
Codec ID                                 : S_TEXT/UTF8
Codec ID/Info                            : UTF-8 Plain Text
Duration                                 : 1 h 32 min
Bit rate                                 : 63 b/s
Count of elements                        : 1719
Stream size                              : 43.0 KiB (0%)
Title                                    : 英文
Language                                 : English
Default                                  : No
Forced                                   : No

Text #4
ID                                       : 6
Format                                   : UTF-8
Codec ID                                 : S_TEXT/UTF8
Codec ID/Info                            : UTF-8 Plain Text
Duration                                 : 1 h 32 min
Bit rate                                 : 69 b/s
Count of elements                        : 1717
Stream size                              : 46.9 KiB (0%)
Title                                    : 韩语
Language                                 : Korean
Default                                  : No
Forced                                   : No

Text #5
ID                                       : 7
Format                                   : UTF-8
Codec ID                                 : S_TEXT/UTF8
Codec ID/Info                            : UTF-8 Plain Text
Duration                                 : 1 h 32 min
Bit rate                                 : 149 b/s
Count of elements                        : 1719
Stream size                              : 102 KiB (0%)
Title                                    : 泰语
Language                                 : Thai
Default                                  : No
Forced                                   : No

Text #6
ID                                       : 8
Format                                   : UTF-8
Codec ID                                 : S_TEXT/UTF8
Codec ID/Info                            : UTF-8 Plain Text
Duration                                 : 1 h 32 min
Bit rate                                 : 77 b/s
Count of elements                        : 1719
Stream size                              : 52.4 KiB (0%)
Title                                    : 马来语
Language                                 : Malay
Default                                  : No
Forced                                   : No

Text #7
ID                                       : 9
Format                                   : UTF-8
Codec ID                                 : S_TEXT/UTF8
Codec ID/Info                            : UTF-8 Plain Text
Duration                                 : 1 h 32 min
Bit rate                                 : 86 b/s
Count of elements                        : 1720
Stream size                              : 58.4 KiB (0%)
Title                                    : 越南语
Language                                 : Vietnamese
Default                                  : No
Forced                                   : No

Text #8
ID                                       : 10
Format                                   : UTF-8
Codec ID                                 : S_TEXT/UTF8
Codec ID/Info                            : UTF-8 Plain Text
Duration                                 : 1 h 32 min
Bit rate                                 : 78 b/s
Count of elements                        : 1719
Stream size                              : 53.0 KiB (0%)
Title                                    : 印尼语
Language                                 : Indonesian
Default                                  : No
Forced                                   : No

Text #9
ID                                       : 11
Format                                   : UTF-8
Codec ID                                 : S_TEXT/UTF8
Codec ID/Info                            : UTF-8 Plain Text
Duration                                 : 1 h 32 min
Bit rate                                 : 111 b/s
Count of elements                        : 1719
Stream size                              : 75.7 KiB (0%)
Title                                    : 阿拉伯语
Language                                 : Arabic
Default                                  : No
Forced                                   : No




                                                                                                                                                                                                        
                                                                                                                                                                                                                                                                                                                                                                                                                                                                                                                                                                                                                                                                                                                                                                                                                                                        
0d2d442e89a7e69519c025ae25543463.torrent (9.25 KB, 下载次数: 0)

回复

使用道具 举报

小黑屋|西西论坛

本网站所有资源来自网络,如无意中侵犯了您的权益,请发邮件至 [email protected],立即清除相关链接

GMT+8, 2021-7-27 10:43 , Processed in 0.154069 second(s), 17 queries .

Powered by Discuz! X3.2

© 2001-2013 Comsenz Inc.

快速回复 返回顶部 返回列表