西西论坛

 找回密码
 立即注册
搜索

[阳光姐妹淘][纯净版][BT下载][WEB-MKV/6.10GB][1080P][友情,青春,翻拍,成长,校园,喜 ...

[复制链接]
admin 发表于 2021-7-15 10:00:09 | 显示全部楼层 |阅读模式
-->78829a970acb9fb2ca410eb2b60cb40f.jpg



◎译  名 阳光姐妹淘 / 中国版阳光姐妹淘 / Sunny Sisters
◎年  代 2021
◎产  地 中国大陆
◎类  别 喜剧
◎语  言 汉语普通话
◎上映日期 2021-06-11(中国大陆)
◎片  长 118分钟
◎导  演 包贝尔 Bei'er Bao (id:1315866)
◎编  剧 阿美 A Mei (id:1323030)
       宋成魏 Chengwei Song (id:1456461)
◎演  员 殷桃 Tao Yin (id:1275049)
       曾黎 Li Zeng (id:1053438)
       张歆艺 Xinyi Zhang (id:1275455)
       马苏 Su Ma (id:1275459)
       倪虹洁 Hongjie Ni (id:1274649)
       蒋小涵 Xiaohan Jiang (id:1313889)
       王玥婷 Yueting Wang (id:1388376)
       周洁琼 Pinky Zhou (id:1386550)
       梁颂晴 Songqing Liang (id:1445042)
       王清 Qing Wang (id:1434590)
       杨晗 Han Yang (id:1395220)
       夏梦 Meng Xia (id:1425529)
       赵铭 Ming Zhao (id:1456196)
       李子璇 Zixuan Li (id:1392262)
       潘斌龙 Binlong Pan (id:1316365)
       陈鹤一 Heyi Chen (id:1436017)
       袁弘 Hong Yuan (id:1275443)
       乔杉 Shan Qiao (id:1316368)
       谭凯 Kai Tan (id:1275687)
       柳小海 Xiaohai Liu (id:1318196)
       代乐乐 Lele Dai (id:1275749)
       李萍 Ping Li (id:1328349)
       杨皓宇 Haoyu Yang (id:1318482)
       西门飘飘  (id:1422159)
       江易轩 Yixuan Jiang (id:1419325)
       肖涵 Han Xiao (id:1314126)
       王添羽  (id:1458967)
       姜祉羽 Jiang Zhiyu (id:1458312)

◎标  签 友情 / 青春 / 翻拍 / 成长 / 校园 / 喜剧 / 感动 / 催泪

◎简  介
  当年陪你走过青春的好朋友,后来还有联系吗?大家又各自过得好吗?家庭主妇张丽君在医院重逢了病重的高中好姐妹林青,林青希望离世前能跟当年的姐妹们重聚。于是,张丽君开启了寻找姐妹的旅程,这一路,大家找回了青春,也重新审视了当下生活。时间好快,人已长大,好想和你再相聚。
General
Complete name                            : 阳光姐妹淘4
Format                                   : MPEG-4
Format profile                           : Base Media
Codec ID                                 : isom (isom/iso2/avc1/mp41)
File size                                : 6.10 GiB
Duration                                 : 1 h 57 min
Overall bit rate mode                    : Variable
Overall bit rate                         : 7 457 kb/s
Writing application                      : Lavf58.19.100

Video
ID                                       : 1
Format                                   : AVC
Format/Info                              : Advanced Video Codec
Format profile                           :
Format settings                          : CABAC / 3 Ref Frames
Format settings, CABAC                   : Yes
Format settings, Reference frames        : 3 frames
Codec ID                                 : avc1
Codec ID/Info                            : Advanced Video Coding
Duration                                 : 1 h 57 min
Bit rate mode                            : Constant
Bit rate                                 : 7 000 kb/s
Width                                    : 1 920 pixels
Height                                   : 1 080 pixels
Display aspect ratio                     : 16:9
Frame rate mode                          : Constant
Frame rate                               : 25.000 FPS
Color space                              : YUV
Chroma subsampling                       : 4:2:0
Bit depth                                : 8 bits
Scan type                                : Progressive
Bits/(Pixel*Frame)                       : 0.135
Stream size                              : 5.73 GiB (94%)
Color range                              : Limited
Matrix coefficients                      : BT.709
Codec configuration box                  : avcC

Audio #1
ID                                       : 2
Format                                   : E-AC-3
Format/Info                              : Enhanced AC-3
Commercial name                          : Dolby Digital Plus
Codec ID                                 : ec-3
Duration                                 : 1 h 57 min
Bit rate mode                            : Constant
Bit rate                                 : 256 kb/s
Channel(s)                               : 2 channels
Channel layout                           : L R
Sampling rate                            : 48.0 kHz
Frame rate                               : 31.250 FPS (1536 SPF)
Compression mode                         : Lossy
Stream size                              : 214 MiB (3%)
Title                                    : 国语DDP2.0
Language                                 : Chinese
Service kind                             : Complete Main
Default                                  : Yes
Alternate group                          : 1

Audio #2
ID                                       : 3
Format                                   : AAC LC
Format/Info                              : Advanced Audio Codec Low Complexity
Codec ID                                 : mp4a-40-2
Duration                                 : 1 h 57 min
Bit rate mode                            : Variable
Bit rate                                 : 192 kb/s
Channel(s)                               : 2 channels
Channel layout                           : L R
Sampling rate                            : 44.1 kHz
Frame rate                               : 43.066 FPS (1024 SPF)
Compression mode                         : Lossy
Stream size                              : 159 MiB (3%)
Title                                    : 国语AAC2.0
Language                                 : Chinese
Default                                  : No
Alternate group                          : 1




                                                                                                                                                                                                        
                                                                                                                                                                                                                                                                                                                                                                                                                                                                                                                                                                                                                                                                                                                                                                                                                                                        
130930f829c49ba795a4de7b5ba9a6ad.torrent (19.94 KB, 下载次数: 0)

回复

使用道具 举报

小黑屋|西西论坛

本网站所有资源来自网络,如无意中侵犯了您的权益,请发邮件至 [email protected],立即清除相关链接

GMT+8, 2021-7-24 04:58 , Processed in 0.140548 second(s), 17 queries .

Powered by Discuz! X3.2

© 2001-2013 Comsenz Inc.

快速回复 返回顶部 返回列表