西西论坛

 找回密码
 立即注册
搜索

[阳光姐妹淘][纯净版][BT下载][WEB-MP4/4.54GB][4K-2160P][60帧率][友情,青春,翻拍,成 ...

[复制链接]
admin 发表于 2021-7-15 09:59:51 | 显示全部楼层 |阅读模式
-->198a35bf3dbcb3730f6293bc729f8e38.jpg



◎译  名 阳光姐妹淘 / 中国版阳光姐妹淘 / Sunny Sisters
◎年  代 2021
◎产  地 中国大陆
◎类  别 喜剧
◎语  言 汉语普通话
◎上映日期 2021-06-11(中国大陆)
◎片  长 118分钟
◎导  演 包贝尔 Bei'er Bao (id:1315866)
◎编  剧 阿美 A Mei (id:1323030)
       宋成魏 Chengwei Song (id:1456461)
◎演  员 殷桃 Tao Yin (id:1275049)
       曾黎 Li Zeng (id:1053438)
       张歆艺 Xinyi Zhang (id:1275455)
       马苏 Su Ma (id:1275459)
       倪虹洁 Hongjie Ni (id:1274649)
       蒋小涵 Xiaohan Jiang (id:1313889)
       王玥婷 Yueting Wang (id:1388376)
       周洁琼 Pinky Zhou (id:1386550)
       梁颂晴 Songqing Liang (id:1445042)
       王清 Qing Wang (id:1434590)
       杨晗 Han Yang (id:1395220)
       夏梦 Meng Xia (id:1425529)
       赵铭 Ming Zhao (id:1456196)
       李子璇 Zixuan Li (id:1392262)
       潘斌龙 Binlong Pan (id:1316365)
       陈鹤一 Heyi Chen (id:1436017)
       袁弘 Hong Yuan (id:1275443)
       乔杉 Shan Qiao (id:1316368)
       谭凯 Kai Tan (id:1275687)
       柳小海 Xiaohai Liu (id:1318196)
       代乐乐 Lele Dai (id:1275749)
       李萍 Ping Li (id:1328349)
       杨皓宇 Haoyu Yang (id:1318482)
       西门飘飘  (id:1422159)
       江易轩 Yixuan Jiang (id:1419325)
       肖涵 Han Xiao (id:1314126)
       王添羽  (id:1458967)
       姜祉羽 Jiang Zhiyu (id:1458312)

◎标  签 友情 / 青春 / 翻拍 / 成长 / 校园 / 喜剧 / 感动 / 催泪

◎简  介
  当年陪你走过青春的好朋友,后来还有联系吗?大家又各自过得好吗?家庭主妇张丽君在医院重逢了病重的高中好姐妹林青,林青希望离世前能跟当年的姐妹们重聚。于是,张丽君开启了寻找姐妹的旅程,这一路,大家找回了青春,也重新审视了当下生活。时间好快,人已长大,好想和你再相聚。
General
Complete name                            : 阳光姐妹淘4
Format                                   : MPEG-4
Format profile                           : Base Media
Codec ID                                 : isom (isom/iso2/mp41)
File size                                : 4.54 GiB
Duration                                 : 1 h 57 min
Overall bit rate mode                    : Variable
Overall bit rate                         : 5 548 kb/s
Writing application                      : Lavf58.29.100

Video
ID                                       : 1
Format                                   : HEVC
Format/Info                              : High Efficiency Video Coding
Format profile                           : @Main
Codec ID                                 : hev1
Codec ID/Info                            : High Efficiency Video Coding
Duration                                 : 1 h 57 min
Bit rate                                 : 5 342 kb/s
Width                                    : 3 840 pixels
Height                                   : 1 608 pixels
Display aspect ratio                     : 2.40:1
Frame rate mode                          : Constant
Frame rate                               : 60.000 FPS
Color space                              : YUV
Chroma subsampling                       : 4:2:0
Bit depth                                : 8 bits
Bits/(Pixel*Frame)                       : 0.014
Stream size                              : 4.37 GiB (96%)
Color range                              : Limited
Color primaries                          : BT.709
Transfer characteristics                 : BT.709
Matrix coefficients                      : BT.709
Codec configuration box                  : hvcC

Audio
ID                                       : 2
Format                                   : AAC LC
Format/Info                              : Advanced Audio Codec Low Complexity
Codec ID                                 : mp4a-40-2
Duration                                 : 1 h 57 min
Bit rate mode                            : Variable
Bit rate                                 : 192 kb/s
Channel(s)                               : 2 channels
Channel layout                           : L R
Sampling rate                            : 44.1 kHz
Frame rate                               : 43.066 FPS (1024 SPF)
Compression mode                         : Lossy
Stream size                              : 159 MiB (3%)
Default                                  : Yes
Alternate group                          : 1




                                                                                                                                                                                                        
                                                                                                                                                                                                                                                                                                                                                                                                                                                                                                                                                                                                                                                                                                                                                                                                                                                        
2bcd4b75e50513b37b36d933b816d985.torrent (16.03 KB, 下载次数: 0)

回复

使用道具 举报

小黑屋|西西论坛

本网站所有资源来自网络,如无意中侵犯了您的权益,请发邮件至 [email protected],立即清除相关链接

GMT+8, 2021-7-27 09:33 , Processed in 0.137513 second(s), 17 queries .

Powered by Discuz! X3.2

© 2001-2013 Comsenz Inc.

快速回复 返回顶部 返回列表