西西论坛

 找回密码
 立即注册
搜索

[如珠如宝的人生][纯净版][BT下载][BD-MKV/8.97GB][国粤语音轨+中文字幕][1080P][喜剧 ...

[复制链接]
admin 发表于 2021-7-15 09:59:48 | 显示全部楼层 |阅读模式
-->dddc6fca4a4e8d941c60978543d704a6.jpg



◎译  名 如珠如宝的人生 / A Lifetime Treasure
◎片  名 如珠如寶
◎年  代 2019
◎产  地 中国香港
◎类  别 剧情 / 喜剧 / 动作
◎语  言 粤语
◎片  长 95分钟
◎导  演 林敏骢 Man-Chung Lam (id:1289295)
       麦启光 Albert Kai-kwong Mak (id:1349070)
◎编  剧 林敏骢 Man-Chung Lam (id:1289295)
       魏达深  (id:1409522)
◎演  员 洪金宝 Sammo Hung Kam-Bo (id:1055887)
       林敏骢 Man-Chung Lam (id:1289295)
       张继聪 Louis Cheung (id:1316230)
       王菀之 Ivana Wong (id:1315465)
       林盛斌 Shing-Ban Lam (id:1351653)
       恬妞 Niu Tien (id:1006142)
       梁小龙 Siu-Lung Leung (id:1274267)
       林雪 Suet Lam (id:1274279)
       泰迪·罗宾 Teddy Robin (id:1274243)
       吴耀汉 Richard Ng (id:1037408)
       黄尧 Yao Huang (id:1378152)
       邹文正 Terry Zou (id:1350958)
       杜宇航 Yu-Hang To (id:1315999)
       邵音音 Yin-Yin Shaw (id:1297367)
       吴嘉龙 Carl Wu (id:1214684)
       沈震轩 Sammy Sum (id:1316097)
       李静仪 Heidi Lee (id:1343968)
       庄思敏 Jacquelin Chong (id:1326932)
       庄韵澄 Xenia Chong (id:1401116)
       劳浩羽 Jeffery Lou (id:1405605)
       顾定轩 Zeno Koo (id:1384688)
       卢慧敏 Amy Lo (id:1377720)
       刘芷希 Kimmy Low (id:1397895)
       张启乐 Ben Cheung (id:1375544)
       苏伟泉 Kumer So (id:1383872)
       泰迪·罗宾 Teddy Robin (id:1274243)
       胡心刚  (id:1409523)
       侯莉  (id:1409524)
       肖美慧  (id:1409525)
       翁秀兰 Shirley Yung Sau-Lan (id:1355762)

◎标  签 喜剧 / 香港 / 香港电影 / 洪金宝 / 2019 / 张继聪 / 林敏聪 / 泰迪罗宾

◎简  介
  30年前一宗金猪失窃未破案,本来是华探长中最好打的肥蟹(洪金寳饰)因太肥胖被革职,兼患上轻度脑退化,被从战场上回流的无分国界医生阮祥昌(院长)(林敏驄饰)连同其它捡回来的老人(吴耀汉、梁小龙、泰迪罗宾、恬妞)一起收留安置在祖传的安憩老人院中,并由院长昔日看护助手清清(王菀之饰)悉心照顾,安享晚年。院长小学同学,雨云集团创办人洪雨云(林雪饰)现今已是成功商人,因小时曾被院长欺负怀恨在心,誓要夺取院长的老人院,令院长一无所有,派出小职员阿俊(张继聪饰)、阿乐(林盛斌饰)前往混入捣乱。众老人各身怀绝技,亦非泛泛之辈,誓要保住老人院这个家,以报答院长救命之恩。《如珠如宝》的从来都是身边的家人,而家人,是一个也不能少的……
General
Unique ID                                : 263371105641529810617899187496554189981 (0xC6236E0CE310CAA2A77636E145D9D49D)
Complete name                            : DQ.COM.mkv
Format                                   : Matroska
Format version                           : Version 4
File size                                : 8.97 GiB
Duration                                 : 1 h 34 min
Overall bit rate                         : 13.6 Mb/s
Movie name                               : A Lifetime Treasure 2019
Encoded date                             : UTC 2021-07-12 14:32:09
Writing application                      : mkvmerge v59.0.0 ('Shining Star') 64-bit
Writing library                          : libebml v1.4.2 + libmatroska v1.6.4
Cover                                    : Yes
Attachments                              : cover.jpg

Video
ID                                       : 1
Format                                   : AVC
Format/Info                              : Advanced Video Codec
Format profile                           :
Format settings                          : CABAC / 4 Ref Frames
Format settings, CABAC                   : Yes
Format settings, Reference frames        : 4 frames
Codec ID                                 : V_MPEG4/ISO/AVC
Duration                                 : 1 h 34 min
Bit rate                                 : 10.5 Mb/s
Width                                    : 1 920 pixels
Height                                   : 804 pixels
Display aspect ratio                     : 2.40:1
Frame rate mode                          : Constant
Frame rate                               : 24.000 FPS
Color space                              : YUV
Chroma subsampling                       : 4:2:0
Bit depth                                : 8 bits
Scan type                                : Progressive
Bits/(Pixel*Frame)                       : 0.284
Stream size                              : 6.95 GiB (77%)
Writing library                          : x264 core 163 r3059+79M f2a8266 t_mod_test_xavc [(8 & 10) X86_64]
Encoding settings                        : cabac=1 / ref=4 / deblock=1:-3:-3 / analyse=0x3:0x133 / me=umh / subme=11 / psy=1 / fade_compensate=0.00 / psy_rd=1.00:0.00 / mixed_ref=1 / me_range=48 / chroma_me=1 / trellis=2 / 8x8dct=1 / cqm=0 / deadzone=21,11 / fast_pskip=0 / chroma_qp_offset=-3 / threads=25 / lookahead_threads=6 / sliced_threads=0 / nr=0 / decimate=0 / interlaced=0 / bluray_compat=0 / constrained_intra=0 / fgo=0 / bframes=11 / b_pyramid=2 / b_adapt=2 / b_bias=0 / direct=3 / weightb=1 / open_gop=0 / weightp=2 / keyint=240 / keyint_min=1 / scenecut=40 / intra_refresh=0 / rc_lookahead=72 / rc=crf / mbtree=0 / crf=16.0000 / qcomp=0.60 / qpmin=0:0:0 / qpmax=69:69:69 / qpstep=4 / vbv_maxrate=62500 / vbv_bufsize=78125 / crf_max=0.0 / nal_hrd=none / filler=0 / ip_ratio=1.40 / pb_ratio=1.30 / aq=3:0.85 / aq-sensitivity=10.00 / aq-factor=1.00:1.00:1.00 / aq2=0 / aq3=0
Default                                  : Yes
Forced                                   : No

Audio #1
ID                                       : 2
Format                                   : DTS
Format/Info                              : Digital Theater Systems
Codec ID                                 : A_DTS
Duration                                 : 1 h 34 min
Bit rate mode                            : Constant
Bit rate                                 : 1 510 kb/s
Channel(s)                               : 6 channels
Channel layout                           : C L R Ls Rs LFE
Sampling rate                            : 48.0 kHz
Frame rate                               : 93.750 FPS (512 SPF)
Bit depth                                : 24 bits
Compression mode                         : Lossy
Stream size                              : 1 021 MiB (11%)
Title                                    : Cantonese
Language                                 : Chinese
Default                                  : Yes
Forced                                   : No

Audio #2
ID                                       : 3
Format                                   : DTS
Format/Info                              : Digital Theater Systems
Codec ID                                 : A_DTS
Duration                                 : 1 h 34 min
Bit rate mode                            : Constant
Bit rate                                 : 1 510 kb/s
Channel(s)                               : 6 channels
Channel layout                           : C L R Ls Rs LFE
Sampling rate                            : 48.0 kHz
Frame rate                               : 93.750 FPS (512 SPF)
Bit depth                                : 24 bits
Compression mode                         : Lossy
Stream size                              : 1 021 MiB (11%)
Title                                    : Mandarin
Language                                 : Chinese
Default                                  : No
Forced                                   : No

Text #1
ID                                       : 4
ID in the original source medium         : 4609 (0x1201)
Format                                   : PGS
Muxing mode                              : zlib
Codec ID                                 : S_HDMV/PGS
Codec ID/Info                            : Picture based subtitle format used on BDs/HD-DVDs
Duration                                 : 1 h 33 min
Bit rate                                 : 38.7 kb/s
Count of elements                        : 2482
Stream size                              : 25.8 MiB (0%)
Title                                    : chs
Language                                 : Chinese
Default                                  : Yes
Forced                                   : No
Original source medium                   : Blu-ray

Text #2
ID                                       : 5
ID in the original source medium         : 4608 (0x1200)
Format                                   : PGS
Muxing mode                              : zlib
Codec ID                                 : S_HDMV/PGS
Codec ID/Info                            : Picture based subtitle format used on BDs/HD-DVDs
Duration                                 : 1 h 33 min
Bit rate                                 : 39.5 kb/s
Count of elements                        : 2482
Stream size                              : 26.3 MiB (0%)
Title                                    : cht
Language                                 : Chinese
Default                                  : No
Forced                                   : No
Original source medium                   : Blu-ray

Text #3
ID                                       : 6
ID in the original source medium         : 4610 (0x1202)
Format                                   : PGS
Muxing mode                              : zlib
Codec ID                                 : S_HDMV/PGS
Codec ID/Info                            : Picture based subtitle format used on BDs/HD-DVDs
Duration                                 : 1 h 33 min
Bit rate                                 : 43.5 kb/s
Count of elements                        : 2495
Stream size                              : 29.0 MiB (0%)
Language                                 : English
Default                                  : No
Forced                                   : No
Original source medium                   : Blu-ray

Menu
00:00:00.000                             : Chapter 01
00:07:01.958                             : Chapter 02
00:14:44.000                             : Chapter 03
00:23:20.875                             : Chapter 04
00:30:54.666                             : Chapter 05
00:39:44.291                             : Chapter 06
00:46:43.500                             : Chapter 07
00:54:53.458                             : Chapter 08
01:02:15.416                             : Chapter 09
01:09:50.750                             : Chapter 10
01:17:47.958                             : Chapter 11
01:27:24.083                             : Chapter 12




                                                                                                                                                                                                        
                                                                                                                                                                                                                                                                                                                                                                                                                                                                                                                                                                                                                                                                                                                                                                                                                                                        
c6ce33fee6c9ec1879dffe682a746116.torrent (27.08 KB, 下载次数: 0)

回复

使用道具 举报

小黑屋|西西论坛

本网站所有资源来自网络,如无意中侵犯了您的权益,请发邮件至 [email protected],立即清除相关链接

GMT+8, 2021-7-27 09:14 , Processed in 0.150940 second(s), 17 queries .

Powered by Discuz! X3.2

© 2001-2013 Comsenz Inc.

快速回复 返回顶部 返回列表