西西论坛

 找回密码
 立即注册
搜索

[非常真相][纯净版][BT下载][BD-MKV/13.48GB][中文字幕][1080P][韩国,悬疑,剧情,犯罪, ...

[复制链接]
admin 发表于 2021-7-13 21:34:16 | 显示全部楼层 |阅读模式
-->7464154c8b4bbb69eb010ba76b72d6ec.jpg



◎译  名 非常真相 / 双面追缉(台) / 消失的时间 / 流逝的时间 / Me and Me / ??? ? ?
◎片  名 ??? ??
◎年  代 2020
◎产  地 韩国
◎类  别 悬疑
◎语  言 韩语
◎上映日期 2020-06-18(韩国)
◎片  长 105分钟
◎导  演 郑镇荣 Jin-yeong Jeong (id:1029108)
◎编  剧 郑镇荣 Jin-yeong Jeong (id:1029108)
◎演  员 赵震雄 Cho Jin-woong (id:1322203)
       裴秀彬 Bae Soo Bin (id:1314538)
       车秀妍 Su-yeon Cha (id:1023715)
       郑海钧 Hae-kyun Jung (id:1359476)
       卢康民 No Kang-min (id:1379624)
       金胤成 Kim Yoon-seong (id:1381050)
       朴斗植 Doo-sik Park (id:1335492)
       李善彬 Sun-bin Lee (id:1362611)
       申东美 Dong-Mi Shin (id:1326130)
       张元英 Won-yeong Jang (id:1339765)
       金建 Kim Geon (id:1434405)
       姜其永 Dalpalan (id:1403066)
       金炫锡 Hyun-seok Kim (id:1410766)

◎标  签 韩国 / 悬疑 / 2020 / 剧情 / 犯罪 / 人性 / 黑色幽默 / 社会

◎简  介
  秀赫是一个乡村小学的老师。他有一个秘密:每天晚上,他的妻子易英都会变成另一个人。有一天,他的一个学生的父亲知道了他们的秘密,并告知村民易英的身体每晚被一种恶灵所占据。村民一致认为易英非常危险,他们要求易英每晚进入上锁的笼子。结果这对夫妻很快在不明原因的大火中丧生。一名警探被派来调查,他一个接一个地审问村民,村子上的气氛逐渐变得诡异。一天晚上,村民们邀请警探到市政厅喝一杯。喝酒后,警探失去了意识。第二天,警探在之前那个笼子里醒来,但是每个人都称他为“老师”。他意识到自己已经变成了秀赫……

◎获奖情况 (共2项)
  第41届韩国电影青龙奖 (2020)
  最佳新人导演(提名)
   └──郑镇荣 (id:1029108)

  第57届百想艺术大赏 (2021)
  电影类 最佳男主角(提名)
   └──赵震雄 (id:1322203)

General
Unique ID                                : 55984027481440471979087918378969846063 (0x2A1E21A98D0376FD369D1ED3DF85D12F)
Complete name                            :
Format                                   : Matroska
Format version                           : Version 4
File size                                : 13.5 GiB
Duration                                 : 1 h 44 min
Overall bit rate                         : 18.4 Mb/s
Movie name                               : Me And Me 2020
Encoded date                             : UTC 2021-07-10 00:54:27
Writing application                      : mkvmerge v58.0.0 ('Supper's Ready') 64-bit
Writing library                          : libebml v1.4.2 + libmatroska v1.6.4
Cover                                    : Yes
Attachments                              : cover.jpg

Video
ID                                       : 1
Format                                   : AVC
Format/Info                              : Advanced Video Codec
Format profile                           :
Format settings                          : CABAC / 4 Ref Frames
Format settings, CABAC                   : Yes
Format settings, Reference frames        : 4 frames
Codec ID                                 : V_MPEG4/ISO/AVC
Duration                                 : 1 h 44 min
Bit rate                                 : 16.8 Mb/s
Width                                    : 1 920 pixels
Height                                   : 1 040 pixels
Display aspect ratio                     : 1.85:1
Frame rate mode                          : Constant
Frame rate                               : 23.976 (24000/1001) FPS
Color space                              : YUV
Chroma subsampling                       : 4:2:0
Bit depth                                : 8 bits
Scan type                                : Progressive
Bits/(Pixel*Frame)                       : 0.352
Stream size                              : 12.3 GiB (92%)
Writing library                          : x264 core 163 r3059+79M f2a8266 t_mod_test_xavc [(8 & 10) X86_64]
Encoding settings                        : cabac=1 / ref=4 / deblock=1:-3:-3 / analyse=0x3:0x133 / me=umh / subme=11 / psy=1 / fade_compensate=0.00 / psy_rd=1.00:0.00 / mixed_ref=1 / me_range=48 / chroma_me=1 / trellis=2 / 8x8dct=1 / cqm=0 / deadzone=21,11 / fast_pskip=0 / chroma_qp_offset=-3 / threads=32 / lookahead_threads=8 / sliced_threads=0 / nr=0 / decimate=0 / interlaced=0 / bluray_compat=0 / constrained_intra=0 / fgo=0 / bframes=11 / b_pyramid=2 / b_adapt=2 / b_bias=0 / direct=3 / weightb=1 / open_gop=0 / weightp=2 / keyint=240 / keyint_min=1 / scenecut=40 / intra_refresh=0 / rc_lookahead=72 / rc=crf / mbtree=0 / crf=18.0000 / qcomp=0.60 / qpmin=0:0:0 / qpmax=69:69:69 / qpstep=4 / vbv_maxrate=62500 / vbv_bufsize=78125 / crf_max=0.0 / nal_hrd=none / filler=0 / ip_ratio=1.40 / pb_ratio=1.30 / aq=3:0.80 / aq-sensitivity=10.00 / aq-factor=1.00:1.00:1.00 / aq2=0 / aq3=0
Default                                  : Yes
Forced                                   : No

Audio
ID                                       : 2
ID in the original source medium         : 4352 (0x1100)
Format                                   : DTS
Format/Info                              : Digital Theater Systems
Codec ID                                 : A_DTS
Duration                                 : 1 h 44 min
Bit rate mode                            : Constant
Bit rate                                 : 1 509 kb/s
Channel(s)                               : 6 channels
Channel layout                           : C L R Ls Rs LFE
Sampling rate                            : 48.0 kHz
Frame rate                               : 93.750 FPS (512 SPF)
Bit depth                                : 24 bits
Compression mode                         : Lossy
Stream size                              : 1.11 GiB (8%)
Language                                 : Korean
Default                                  : Yes
Forced                                   : No
Original source medium                   : Blu-ray

Text #1
ID                                       : 3
ID in the original source medium         : 4610 (0x1202)
Format                                   : PGS
Muxing mode                              : zlib
Codec ID                                 : S_HDMV/PGS
Codec ID/Info                            : Picture based subtitle format used on BDs/HD-DVDs
Duration                                 : 1 h 40 min
Bit rate                                 : 23.5 kb/s
Count of elements                        : 2620
Stream size                              : 16.9 MiB (0%)
Title                                    : chs
Language                                 : Chinese
Default                                  : Yes
Forced                                   : No
Original source medium                   : Blu-ray

Text #2
ID                                       : 4
ID in the original source medium         : 4611 (0x1203)
Format                                   : PGS
Muxing mode                              : zlib
Codec ID                                 : S_HDMV/PGS
Codec ID/Info                            : Picture based subtitle format used on BDs/HD-DVDs
Duration                                 : 1 h 40 min
Bit rate                                 : 23.8 kb/s
Count of elements                        : 2620
Stream size                              : 17.0 MiB (0%)
Title                                    : cht
Language                                 : Chinese
Default                                  : No
Forced                                   : No
Original source medium                   : Blu-ray

Text #3
ID                                       : 5
ID in the original source medium         : 4608 (0x1200)
Format                                   : PGS
Muxing mode                              : zlib
Codec ID                                 : S_HDMV/PGS
Codec ID/Info                            : Picture based subtitle format used on BDs/HD-DVDs
Duration                                 : 1 h 39 min
Bit rate                                 : 22.3 kb/s
Count of elements                        : 2538
Stream size                              : 16.0 MiB (0%)
Language                                 : Korean
Default                                  : No
Forced                                   : No
Original source medium                   : Blu-ray

Text #4
ID                                       : 6
ID in the original source medium         : 4609 (0x1201)
Format                                   : PGS
Muxing mode                              : zlib
Codec ID                                 : S_HDMV/PGS
Codec ID/Info                            : Picture based subtitle format used on BDs/HD-DVDs
Duration                                 : 1 h 40 min
Bit rate                                 : 24.5 kb/s
Count of elements                        : 2476
Stream size                              : 17.5 MiB (0%)
Language                                 : English
Default                                  : No
Forced                                   : No
Original source medium                   : Blu-ray

Menu
00:00:00.000                             : Chapter 01
00:08:53.991                             : Chapter 02
00:17:23.250                             : Chapter 03
00:23:41.420                             : Chapter 04
00:33:39.434                             : Chapter 05
00:44:22.284                             : Chapter 06
00:54:33.520                             : Chapter 07
01:03:37.063                             : Chapter 08
01:11:21.026                             : Chapter 09
01:19:35.645                             : Chapter 10
01:29:47.757                             : Chapter 11
01:41:27.915                             : Chapter 12




                                                                                                                                                                                                        
                                                                                                                                                                                                                                                                                                                                                                                                                                                                                                                                                                                                                                                                                                                                                                                                                                                        
035584ca267a2ecc0ad23075aeffc702.torrent (38.34 KB, 下载次数: 0)

回复

使用道具 举报

小黑屋|西西论坛

本网站所有资源来自网络,如无意中侵犯了您的权益,请发邮件至 [email protected],立即清除相关链接

GMT+8, 2021-7-24 05:47 , Processed in 0.160022 second(s), 17 queries .

Powered by Discuz! X3.2

© 2001-2013 Comsenz Inc.

快速回复 返回顶部 返回列表