西西论坛

 找回密码
 立即注册
搜索

[征途][纯净版][BT下载][BD-MKV/7.71GB][国语音轨+中文字幕][1080P][游戏改编,中国,动 ...

[复制链接]
admin 发表于 2021-7-13 21:34:08 | 显示全部楼层 |阅读模式
-->ec5507c9c1b8f070cf5e6ea0cc459971.jpg



◎译  名 征途 / Double World
◎年  代 2020
◎产  地 中国大陆
◎类  别 动作 / 奇幻 / 冒险
◎语  言 汉语普通话
◎上映日期 2020-07-24(中国大陆网络)
◎片  长 110分钟
◎导  演 陈德森 Teddy Chan (id:1313007)
◎编  剧 刘奋斗 Fendou Liu (id:1275174)
       文宁 Ning Wen (id:1327359)
◎演  员 刘宪华 Henry Lau (id:1335689)
       何润东 Peter Ho (id:1050590)
       林辰涵 Chenhan Lin (id:1402470)
       蒋璐霞 Luxia Jiang (id:1313597)
       罗子溢 Chung Him Law (id:1313369)
       胡明 Ming Hu (id:1275967)
       许明虎 Tiger Xu (id:1325510)
       郑浩南 Mark Cheng (id:1028605)
       施诗 Shi Shi (id:1317921)
       张宁江 Ningjiang Zhang (id:1321998)
       王延龙 Yanlong Wang (id:1418378)
       杜晓帆 Xiaofan Du (id:1352782)
       李熙瑜 Xiyu Li (id:1418379)
       李熙蕾 Xilei Li (id:1418381)
       许翔 Xiang Xu (id:1425729)
       陈奕名 Yiming Chen (id:1404206)
       艾米 Aimee (id:1396876)
       都桂宇 Guiyu Du (id:1450855)
       郑保瑞 Pou-Soi Cheang (id:1274240)
       杨涛 Tao Yang (id:1301418)
       徐建 Eric Xu (id:1382406)
       魏明 Allen Wei (id:1424810)
       李帅 Shuai Li (id:1430937)
       董玮 Wai Tung (id:1299617)

◎标  签 游戏改编 / 中国 / 动作 / 奇幻 / 古装 / 魔幻 / 3D / 冒险

◎简  介
  故事发生在虚构的中原大陆。十国之中,南赵国与北燕国比邻而居。为了防御日益强大的北燕,南赵举办比武大会,选拔将才。消息传到偏僻的清源村,村民东一龙想成为家族的举旗人,代表清源村家族出赛,村民们却质疑他的资格,经过一番努力,一龙终于踏上了与武士楚魂的征途……

◎获奖情况 (共2项)
  第39届香港电影金像奖 (2020)
  最佳动作设计(提名)
   └──董玮 (id:1299617)
  最佳视觉效果(提名)
   └──李帅 (id:1430937)
   └──魏明 (id:1424810)
   └──徐建 (id:1382406)

General
Unique ID                                : 28459952924634153991680979844832032103 (0x15693003A0753601FC5E3068BA25F567)
Complete name                            : QDDQ.COM.mkv
Format                                   : Matroska
Format version                           : Version 4
File size                                : 7.71 GiB
Duration                                 : 1 h 50 min
Overall bit rate mode                    : Variable
Overall bit rate                         : 10.0 Mb/s
Movie name                               : Double World 2020 1080p BluRay DTS-HD MA 5.1
Encoded date                             : UTC 2021-07-11 21:11:13
Writing application                      : mkvmerge v38.0.0 ('The Silent Type') 64-bit
Writing library                          : libebml v1.3.9 + libmatroska v1.5.2

Video
ID                                       : 1
Format                                   : HEVC
Format/Info                              : High Efficiency Video Coding
Format profile                           : Main @High
Codec ID                                 : V_MPEGH/ISO/HEVC
Duration                                 : 1 h 50 min
Bit rate                                 : 6 037 kb/s
Width                                    : 1 920 pixels
Height                                   : 808 pixels
Display aspect ratio                     : 2.40:1
Frame rate mode                          : Constant
Frame rate                               : 23.976 (24000/1001) FPS
Color space                              : YUV
Chroma subsampling                       : 4:2:0
Bit depth                                : 10 bits
Bits/(Pixel*Frame)                       : 0.162
Stream size                              : 4.64 GiB (60%)
Title                                    :
Writing library                          : x265 - H.265/HEVC codec
Default                                  : Yes
Forced                                   : No

Audio
ID                                       : 2
Format                                   : DTS XLL
Format/Info                              : Digital Theater Systems
Commercial name                          : DTS-HD Master Audio
Codec ID                                 : A_DTS
Duration                                 : 1 h 50 min
Bit rate mode                            : Variable
Bit rate                                 : 3 950 kb/s
Channel(s)                               : 6 channels
Channel layout                           : C L R Ls Rs LFE
Sampling rate                            : 48.0 kHz
Frame rate                               : 93.750 FPS (512 SPF)
Bit depth                                : 24 bits
Compression mode                         : Lossless
Stream size                              : 3.04 GiB (39%)
Title                                    : Mandarin
Language                                 : Chinese
Default                                  : Yes
Forced                                   : No

Text #1
ID                                       : 3
Format                                   : PGS
Muxing mode                              : zlib
Codec ID                                 : S_HDMV/PGS
Codec ID/Info                            : Picture based subtitle format used on BDs/HD-DVDs
Duration                                 : 1 h 43 min
Bit rate                                 : 15.4 kb/s
Count of elements                        : 1968
Stream size                              : 11.4 MiB (0%)
Title                                    : CHS
Language                                 : Chinese
Default                                  : Yes
Forced                                   : No

Text #2
ID                                       : 4
Format                                   : PGS
Muxing mode                              : zlib
Codec ID                                 : S_HDMV/PGS
Codec ID/Info                            : Picture based subtitle format used on BDs/HD-DVDs
Duration                                 : 1 h 43 min
Bit rate                                 : 15.7 kb/s
Count of elements                        : 2049
Stream size                              : 11.5 MiB (0%)
Title                                    : CHT
Language                                 : Chinese
Default                                  : No
Forced                                   : No

Text #3
ID                                       : 5
Format                                   : PGS
Muxing mode                              : zlib
Codec ID                                 : S_HDMV/PGS
Codec ID/Info                            : Picture based subtitle format used on BDs/HD-DVDs
Duration                                 : 1 h 43 min
Bit rate                                 : 17.4 kb/s
Count of elements                        : 1974
Stream size                              : 12.9 MiB (0%)
Title                                    : CHS
Language                                 : Chinese
Default                                  : No
Forced                                   : No

Text #4
ID                                       : 6
Format                                   : PGS
Muxing mode                              : zlib
Codec ID                                 : S_HDMV/PGS
Codec ID/Info                            : Picture based subtitle format used on BDs/HD-DVDs
Duration                                 : 1 h 43 min
Bit rate                                 : 17.8 kb/s
Count of elements                        : 1974
Stream size                              : 13.2 MiB (0%)
Title                                    : CHT
Language                                 : Chinese
Default                                  : No
Forced                                   : No

Menu
00:00:00.000                             : en:Chapter 01
00:09:33.239                             : en:Chapter 02
00:18:44.123                             : en:Chapter 03
00:25:19.433                             : en:Chapter 04
00:37:15.815                             : en:Chapter 05
00:46:59.650                             : en:Chapter 06
00:58:39.516                             : en:Chapter 07
01:09:37.756                             : en:Chapter 08
01:18:31.206                             : en:Chapter 09
01:26:14.502                             : en:Chapter 10
01:34:20.445                             : en:Chapter 11
01:42:03.867                             : en:Chapter 12




                                                                                                                                                                                                        
                                                                                                                                                                                                                                                                                                                                                                                                                                                                                                                                                                                                                                                                                                                                                                                                                                                        
613282aabd8112444094e0249de50031.torrent (23.97 KB, 下载次数: 0)

回复

使用道具 举报

小黑屋|西西论坛

本网站所有资源来自网络,如无意中侵犯了您的权益,请发邮件至 [email protected],立即清除相关链接

GMT+8, 2021-7-27 09:55 , Processed in 0.200593 second(s), 17 queries .

Powered by Discuz! X3.2

© 2001-2013 Comsenz Inc.

快速回复 返回顶部 返回列表