西西论坛

 找回密码
 立即注册
搜索

[龙棺古墓:西夏狼王][纯净版][BT下载][WEB-MKV/2.41GB][4K-2160P][高清无水印片源] . ...

[复制链接]
admin 发表于 2021-7-12 20:46:09 | 显示全部楼层 |阅读模式
-->fffa0566213fd4b217a90ec572680941.jpg



◎译  名 龙棺古墓:西夏狼王
◎年  代 2021
◎产  地 中国大陆
◎类  别 惊悚 / 冒险
◎语  言 汉语普通话
◎上映日期 2021-07-09(中国大陆)
◎片  长 76分钟
◎演  员 赵达 Da Zhao (id:1322795)
       黄奕 Yi Huang (id:1051051)
       武强 Qiang Wu (id:1351719)
       迟明 Ming Chi (id:1331307)
       张恒瑞 Hengrui Zhang (id:1411489)
       魏大鸣 Daming Wei (id:1327203)

◎标  签 冒险 / 2021 / 悬疑 / 动作 / 电影 / 人性 / 大陆 / 犯罪

◎简  介
  以刘锦州(赵达饰)为首的“生旦净丑”四位戏子,为了营救在西夏左狼王墓失踪的师父,踏上凶险万分的探墓寻人之旅……
General
Complete name                            : 龙棺古墓:西夏狼王
Format                                   : MPEG-4
Format profile                           : Base Media
Codec ID                                 : isom (isom/iso2/mp41)
File size                                : 2.40 GiB
Duration                                 : 1 h 16 min
Overall bit rate                         : 4 528 kb/s
Writing application                      : Lavf58.32.104

Video
ID                                       : 1
Format                                   : HEVC
Format/Info                              : High Efficiency Video Coding
Format profile                           : @Main
Codec ID                                 : hev1
Codec ID/Info                            : High Efficiency Video Coding
Duration                                 : 1 h 16 min
Bit rate                                 : 4 332 kb/s
Width                                    : 3 840 pixels
Height                                   : 1 600 pixels
Display aspect ratio                     : 2.40:1
Frame rate mode                          : Constant
Frame rate                               : 25.000 FPS
Color space                              : YUV
Chroma subsampling                       : 4:2:0
Bit depth                                : 8 bits
Bits/(Pixel*Frame)                       : 0.028
Stream size                              : 2.30 GiB (96%)
Codec configuration box                  : hvcC

Audio
ID                                       : 2
Format                                   : AAC LC
Format/Info                              : Advanced Audio Codec Low Complexity
Codec ID                                 : mp4a-40-2
Duration                                 : 1 h 16 min
Bit rate mode                            : Constant
Bit rate                                 : 192 kb/s
Channel(s)                               : 2 channels
Channel layout                           : L R
Sampling rate                            : 44.1 kHz
Frame rate                               : 43.066 FPS (1024 SPF)
Compression mode                         : Lossy
Stream size                              : 103 MiB (4%)
Default                                  : Yes
Alternate group                          : 1




                                                                                                                                                                                                        
                                                                                                                                                                                                                                                                                                                                                                                                                                                                                                                                                                                                                                                                                                                                                                                                                                                        
132ba46788d4e5e0a676a4868d741918.torrent (10.77 KB, 下载次数: 0)

回复

使用道具 举报

小黑屋|西西论坛

本网站所有资源来自网络,如无意中侵犯了您的权益,请发邮件至 [email protected],立即清除相关链接

GMT+8, 2021-7-24 05:21 , Processed in 0.145366 second(s), 17 queries .

Powered by Discuz! X3.2

© 2001-2013 Comsenz Inc.

快速回复 返回顶部 返回列表