西西论坛

 找回密码
 立即注册
搜索

[新年前夜][纯净版][BT下载][BD-MKV/11.28GB][中文字幕][1080P][韩国,爱情,韩国电影,. ...

[复制链接]
admin 发表于 2021-7-12 20:45:57 | 显示全部楼层 |阅读模式
-->41237c74e0e4b14208364520d8fff24f.jpg



◎译  名 新年前夜 / 新年前夕(港) / 今天决定我爱你(台) / New Year Blues
◎片  名 ????
◎年  代 2021
◎产  地 韩国
◎类  别 爱情
◎语  言 韩语
◎上映日期 2021-02-10(韩国)
◎片  长 114分钟
◎导  演 洪智暎 Ji-Yeong Hong (id:1324365)
◎演  员 金康宇 Kang-woo Kim (id:1193404)
       刘寅娜 In-na Yoo (id:1314862)
       柳演锡 Yeon-Seok Yoo (id:1321213)
       李沇熹 Yeon-hee Lee (id:1230320)
       李东辉 Dong-Hwi Lee (id:1353574)
       陈都灵 Duling Chen (id:1342249)
       廉惠兰 Yum Hye-ran (id:1378885)
       崔秀英 Sooyoung Choi (id:1321436)
       刘台午 Teo Yoo (id:1343343)
       艺秀晶 Ye Soo-jung (id:1382568)
       崔始源 Si-won Choi (id:1240451)
       安世河 Se-ha Ahn (id:1352668)
       赵汉哲 Han-chul Jo (id:1386180)
       罗美兰 Mi-ran Ra (id:1329322)
       李俊赫 Lee Joon-Hyuk (id:1331785)
       徐贤宇 Seo Hyeon-woo (id:1379938)
       金光奎 Kwang-gyu Kim (id:1317057)
       金釉利 Kim Yuri (id:1325681)

◎标  签 韩国 / 爱情 / 韩国电影 / 柳演锡 / 刘仁娜 / 2021 / 李沇熹 / 2020

◎简  介
  电影讲述了在新年即将到来之前,四对情侣在克服恐惧与不安的同时,度过了一周欢笑与浪漫并存的时光。
General
Unique ID                                : 71808560991141286675208884735612498493 (0x3605D366D143B296A6C82A64499B323D)
Complete name                            :
Format                                   : Matroska
Format version                           : Version 4
File size                                : 11.3 GiB
Duration                                 : 1 h 54 min
Overall bit rate                         : 14.1 Mb/s
Movie name                               : New Year Blues 2021
Encoded date                             : UTC 2021-07-10 01:11:26
Writing application                      : mkvmerge v58.0.0 ('Supper's Ready') 64-bit
Writing library                          : libebml v1.4.2 + libmatroska v1.6.4
Cover                                    : Yes
Attachments                              : cover.jpg

Video
ID                                       : 1
Format                                   : AVC
Format/Info                              : Advanced Video Codec
Format profile                           :
Format settings                          : CABAC / 4 Ref Frames
Format settings, CABAC                   : Yes
Format settings, Reference frames        : 4 frames
Codec ID                                 : V_MPEG4/ISO/AVC
Duration                                 : 1 h 54 min
Bit rate                                 : 12.6 Mb/s
Width                                    : 1 920 pixels
Height                                   : 804 pixels
Display aspect ratio                     : 2.40:1
Frame rate mode                          : Constant
Frame rate                               : 23.976 (24000/1001) FPS
Color space                              : YUV
Chroma subsampling                       : 4:2:0
Bit depth                                : 8 bits
Scan type                                : Progressive
Bits/(Pixel*Frame)                       : 0.339
Stream size                              : 10.0 GiB (89%)
Writing library                          : x264 core 163 r3059+79M f2a8266 t_mod_test_xavc [(8 & 10) X86_64]
Encoding settings                        : cabac=1 / ref=4 / deblock=1:-3:-3 / analyse=0x3:0x133 / me=umh / subme=11 / psy=1 / fade_compensate=0.00 / psy_rd=1.00:0.00 / mixed_ref=1 / me_range=48 / chroma_me=1 / trellis=2 / 8x8dct=1 / cqm=0 / deadzone=21,11 / fast_pskip=0 / chroma_qp_offset=-3 / threads=25 / lookahead_threads=6 / sliced_threads=0 / nr=0 / decimate=0 / interlaced=0 / bluray_compat=0 / constrained_intra=0 / fgo=0 / bframes=11 / b_pyramid=2 / b_adapt=2 / b_bias=0 / direct=3 / weightb=1 / open_gop=0 / weightp=2 / keyint=240 / keyint_min=1 / scenecut=40 / intra_refresh=0 / rc_lookahead=72 / rc=crf / mbtree=0 / crf=17.0000 / qcomp=0.62 / qpmin=0:0:0 / qpmax=69:69:69 / qpstep=4 / vbv_maxrate=62500 / vbv_bufsize=78125 / crf_max=0.0 / nal_hrd=none / filler=0 / ip_ratio=1.40 / pb_ratio=1.30 / aq=3:0.80 / aq-sensitivity=10.00 / aq-factor=1.00:1.00:1.00 / aq2=0 / aq3=0
Default                                  : Yes
Forced                                   : No

Audio
ID                                       : 2
ID in the original source medium         : 4352 (0x1100)
Format                                   : DTS
Format/Info                              : Digital Theater Systems
Codec ID                                 : A_DTS
Duration                                 : 1 h 54 min
Bit rate mode                            : Constant
Bit rate                                 : 1 509 kb/s
Channel(s)                               : 6 channels
Channel layout                           : C L R Ls Rs LFE
Sampling rate                            : 48.0 kHz
Frame rate                               : 93.750 FPS (512 SPF)
Bit depth                                : 24 bits
Compression mode                         : Lossy
Stream size                              : 1.20 GiB (11%)
Language                                 : Korean
Default                                  : Yes
Forced                                   : No
Original source medium                   : Blu-ray

Text #1
ID                                       : 3
ID in the original source medium         : 4610 (0x1202)
Format                                   : PGS
Muxing mode                              : zlib
Codec ID                                 : S_HDMV/PGS
Codec ID/Info                            : Picture based subtitle format used on BDs/HD-DVDs
Duration                                 : 1 h 49 min
Bit rate                                 : 28.7 kb/s
Count of elements                        : 3431
Stream size                              : 22.6 MiB (0%)
Title                                    : chs
Language                                 : Chinese
Default                                  : Yes
Forced                                   : No
Original source medium                   : Blu-ray

Text #2
ID                                       : 4
ID in the original source medium         : 4611 (0x1203)
Format                                   : PGS
Muxing mode                              : zlib
Codec ID                                 : S_HDMV/PGS
Codec ID/Info                            : Picture based subtitle format used on BDs/HD-DVDs
Duration                                 : 1 h 49 min
Bit rate                                 : 29.1 kb/s
Count of elements                        : 3431
Stream size                              : 22.9 MiB (0%)
Title                                    : cht
Language                                 : Chinese
Default                                  : No
Forced                                   : No
Original source medium                   : Blu-ray

Text #3
ID                                       : 5
ID in the original source medium         : 4608 (0x1200)
Format                                   : PGS
Muxing mode                              : zlib
Codec ID                                 : S_HDMV/PGS
Codec ID/Info                            : Picture based subtitle format used on BDs/HD-DVDs
Duration                                 : 1 h 49 min
Bit rate                                 : 20.4 kb/s
Count of elements                        : 2716
Stream size                              : 16.0 MiB (0%)
Language                                 : Korean
Default                                  : No
Forced                                   : No
Original source medium                   : Blu-ray

Text #4
ID                                       : 6
ID in the original source medium         : 4609 (0x1201)
Format                                   : PGS
Muxing mode                              : zlib
Codec ID                                 : S_HDMV/PGS
Codec ID/Info                            : Picture based subtitle format used on BDs/HD-DVDs
Duration                                 : 1 h 49 min
Bit rate                                 : 32.9 kb/s
Count of elements                        : 3453
Stream size                              : 25.8 MiB (0%)
Language                                 : English
Default                                  : No
Forced                                   : No
Original source medium                   : Blu-ray

Menu
00:00:00.000                             : Chapter 01
00:06:06.449                             : Chapter 02
00:20:36.944                             : Chapter 03
00:32:16.392                             : Chapter 04
00:43:57.885                             : Chapter 05
00:58:28.421                             : Chapter 06
01:13:12.137                             : Chapter 07
01:26:22.510                             : Chapter 08
01:39:06.565                             : Chapter 09
01:50:11.521                             : Chapter 10




                                                                                                                                                                                                        
                                                                                                                                                                                                                                                                                                                                                                                                                                                                                                                                                                                                                                                                                                                                                                                                                                                        
56ec68c1c034ee08de5fbbfdcf4bdb97.torrent (32.94 KB, 下载次数: 0)

回复

使用道具 举报

小黑屋|西西论坛

本网站所有资源来自网络,如无意中侵犯了您的权益,请发邮件至 [email protected],立即清除相关链接

GMT+8, 2021-7-24 07:00 , Processed in 0.161906 second(s), 17 queries .

Powered by Discuz! X3.2

© 2001-2013 Comsenz Inc.

快速回复 返回顶部 返回列表