西西论坛

 找回密码
 立即注册
搜索

[第八天之夜][纯净版][BT下载][WEB-MKV/6.00GB][繁体字幕][1080P][恐怖,惊悚,韩国,韩 ...

[复制链接]
admin 发表于 2021-7-10 14:07:19 | 显示全部楼层 |阅读模式
-->0a0c087de22963f40068636eac38a3a2.jpg



◎译  名 第八天之夜/The 8th Night/第8夜
◎片  名 ?8?? ?
◎年  代 2021
◎产  地 韩国
◎类  别 悬疑 / 惊悚
◎语  言 韩语
◎上映日期 2021-07-02(韩国网络)
◎片  长 115分钟
◎导  演 金泰亨 Tae-Hyung Kim
◎主  演 金裕贞 Yoo-Jeong Kim
       李星民 Sung-min Lee
       朴海俊 Hea-jun Park
       南多凛 Dareum Nam
       朴世贤 Se Hyun Park

◎标  签 恐怖 | 惊悚 | 韩国 | 悬疑 | 韩国电影 | 2021 | 电影 | 南多凛

◎简  介

  该片是一部悬疑惊悚片,讲述为了迎战从封印中被释放的“那个东西”,人们所展开的殊死搏斗,全世界因被从封印中释放的“那个东西”而陷入了一片混乱,所有人为了生存不得不奋力一搏。片名中所提到的数字“8”也预示着完全、不灭、重生等意义,金裕贞将在片中饰演本身就散发着阴森气息的悬疑角色爱兰。
General
Unique ID                                : 300213991783406805817178261549223544580 (0xE1DB1C9517A40F156CA531842FD88704)
Complete name                            : 第八天之夜.The.8th.Night.2021.Netflix.WEB-DL.1080p.x264.DDP5.1-OurTV.mkv
Format                                   : Matroska
Format version                           : Version 4
File size                                : 5.99 GiB
Duration                                 : 1 h 56 min
Overall bit rate                         : 7 373 kb/s
Encoded date                             : UTC 2021-07-07 14:16:18
Writing application                      : mkvmerge v58.0.0 ('Supper's Ready') 64-bit
Writing library                          : libebml v1.4.2 + libmatroska v1.6.4

Video
ID                                       : 1
Format                                   : AVC
Format/Info                              : Advanced Video Codec
Format profile                           :
Format settings                          : CABAC / 4 Ref Frames
Format settings, CABAC                   : Yes
Format settings, Reference frames        : 4 frames
Codec ID                                 : V_MPEG4/ISO/AVC
Duration                                 : 1 h 56 min
Bit rate                                 : 4 170 kb/s
Width                                    : 1 920 pixels
Height                                   : 1 080 pixels
Display aspect ratio                     : 16:9
Frame rate mode                          : Constant
Frame rate                               : 23.976 (24000/1001) FPS
Color space                              : YUV
Chroma subsampling                       : 4:2:0
Bit depth                                : 8 bits
Scan type                                : Progressive
Bits/(Pixel*Frame)                       : 0.084
Stream size                              : 3.39 GiB (57%)
Default                                  : Yes
Forced                                   : No

Audio #1
ID                                       : 2
Format                                   : E-AC-3
Format/Info                              : Enhanced AC-3
Commercial name                          : Dolby Digital Plus
Codec ID                                 : A_EAC3
Duration                                 : 1 h 56 min
Bit rate mode                            : Constant
Bit rate                                 : 640 kb/s
Channel(s)                               : 6 channels
Channel layout                           : L R C LFE Ls Rs
Sampling rate                            : 48.0 kHz
Frame rate                               : 31.250 FPS (1536 SPF)
Compression mode                         : Lossy
Delay relative to video                  : -83 ms
Stream size                              : 533 MiB (9%)
Language                                 : English
Service kind                             : Complete Main
Default                                  : Yes
Forced                                   : No

Audio #2
ID                                       : 3
Format                                   : E-AC-3
Format/Info                              : Enhanced AC-3
Commercial name                          : Dolby Digital Plus
Codec ID                                 : A_EAC3
Duration                                 : 1 h 56 min
Bit rate mode                            : Constant
Bit rate                                 : 640 kb/s
Channel(s)                               : 6 channels
Channel layout                           : L R C LFE Ls Rs
Sampling rate                            : 48.0 kHz
Frame rate                               : 31.250 FPS (1536 SPF)
Compression mode                         : Lossy
Delay relative to video                  : -83 ms
Stream size                              : 533 MiB (9%)
Language                                 : Korean
Service kind                             : Complete Main
Default                                  : Yes
Forced                                   : No

Audio #3
ID                                       : 4
Format                                   : E-AC-3
Format/Info                              : Enhanced AC-3
Commercial name                          : Dolby Digital Plus
Codec ID                                 : A_EAC3
Duration                                 : 1 h 56 min
Bit rate mode                            : Constant
Bit rate                                 : 640 kb/s
Channel(s)                               : 6 channels
Channel layout                           : L R C LFE Ls Rs
Sampling rate                            : 48.0 kHz
Frame rate                               : 31.250 FPS (1536 SPF)
Compression mode                         : Lossy
Delay relative to video                  : -83 ms
Stream size                              : 533 MiB (9%)
Language                                 : Japanese
Service kind                             : Complete Main
Default                                  : Yes
Forced                                   : No

Audio #4
ID                                       : 5
Format                                   : E-AC-3
Format/Info                              : Enhanced AC-3
Commercial name                          : Dolby Digital Plus
Codec ID                                 : A_EAC3
Duration                                 : 1 h 56 min
Bit rate mode                            : Constant
Bit rate                                 : 640 kb/s
Channel(s)                               : 6 channels
Channel layout                           : L R C LFE Ls Rs
Sampling rate                            : 48.0 kHz
Frame rate                               : 31.250 FPS (1536 SPF)
Compression mode                         : Lossy
Delay relative to video                  : -83 ms
Stream size                              : 533 MiB (9%)
Language                                 : Spanish
Service kind                             : Complete Main
Default                                  : Yes
Forced                                   : No

Audio #5
ID                                       : 6
Format                                   : E-AC-3
Format/Info                              : Enhanced AC-3
Commercial name                          : Dolby Digital Plus
Codec ID                                 : A_EAC3
Duration                                 : 1 h 56 min
Bit rate mode                            : Constant
Bit rate                                 : 640 kb/s
Channel(s)                               : 6 channels
Channel layout                           : L R C LFE Ls Rs
Sampling rate                            : 48.0 kHz
Frame rate                               : 31.250 FPS (1536 SPF)
Compression mode                         : Lossy
Delay relative to video                  : -83 ms
Stream size                              : 533 MiB (9%)
Language                                 : Thai
Service kind                             : Complete Main
Default                                  : Yes
Forced                                   : No

Text #1
ID                                       : 7
Format                                   : UTF-8
Codec ID                                 : S_TEXT/UTF8
Codec ID/Info                            : UTF-8 Plain Text
Duration                                 : 1 h 54 min
Bit rate                                 : 33 b/s
Count of elements                        : 798
Stream size                              : 27.8 KiB (0%)
Title                                    : English
Language                                 : English
Default                                  : Yes
Forced                                   : No

Text #2
ID                                       : 8
Format                                   : UTF-8
Codec ID                                 : S_TEXT/UTF8
Codec ID/Info                            : UTF-8 Plain Text
Duration                                 : 1 h 54 min
Bit rate                                 : 31 b/s
Count of elements                        : 808
Stream size                              : 26.8 KiB (0%)
Title                                    : Spanish
Language                                 : Spanish
Default                                  : Yes
Forced                                   : No

Text #3
ID                                       : 9
Format                                   : UTF-8
Codec ID                                 : S_TEXT/UTF8
Codec ID/Info                            : UTF-8 Plain Text
Duration                                 : 1 h 55 min
Bit rate                                 : 59 b/s
Count of elements                        : 839
Stream size                              : 50.5 KiB (0%)
Title                                    : Japan
Language                                 : Japanese
Default                                  : Yes
Forced                                   : No

Text #4
ID                                       : 10
Format                                   : UTF-8
Codec ID                                 : S_TEXT/UTF8
Codec ID/Info                            : UTF-8 Plain Text
Duration                                 : 1 h 51 min
Bit rate                                 : 44 b/s
Count of elements                        : 1106
Stream size                              : 36.1 KiB (0%)
Title                                    : Korea
Language                                 : Korean
Default                                  : Yes
Forced                                   : No

Text #5
ID                                       : 11
Format                                   : UTF-8
Codec ID                                 : S_TEXT/UTF8
Codec ID/Info                            : UTF-8 Plain Text
Duration                                 : 1 h 55 min
Bit rate                                 : 76 b/s
Count of elements                        : 855
Stream size                              : 64.6 KiB (0%)
Title                                    : Thai
Language                                 : Thai
Default                                  : Yes
Forced                                   : No

Text #6
ID                                       : 12
Format                                   : UTF-8
Codec ID                                 : S_TEXT/UTF8
Codec ID/Info                            : UTF-8 Plain Text
Duration                                 : 1 h 55 min
Bit rate                                 : 28 b/s
Count of elements                        : 846
Stream size                              : 23.7 KiB (0%)
Title                                    : 簡体
Language                                 : Chinese
Default                                  : Yes
Forced                                   : No

Text #7
ID                                       : 13
Format                                   : UTF-8
Codec ID                                 : S_TEXT/UTF8
Codec ID/Info                            : UTF-8 Plain Text
Duration                                 : 1 h 55 min
Bit rate                                 : 27 b/s
Count of elements                        : 840
Stream size                              : 23.1 KiB (0%)
Title                                    : 繁體
Language                                 : Chinese
Default                                  : Yes
Forced                                   : No




                                                                                                                                                                                                        
                                                                                                                                                                                                                                                                                                                                                                                                                                                                                                                                                                                                                                                                                                                                                                                                                                                        
b09425a5b3cc0220aae3956d5a9c0477.torrent (19.6 KB, 下载次数: 0)

回复

使用道具 举报

小黑屋|西西论坛

本网站所有资源来自网络,如无意中侵犯了您的权益,请发邮件至 [email protected],立即清除相关链接

GMT+8, 2021-7-24 06:40 , Processed in 0.151132 second(s), 17 queries .

Powered by Discuz! X3.2

© 2001-2013 Comsenz Inc.

快速回复 返回顶部 返回列表