西西论坛

 找回密码
 立即注册
搜索

[非常真相][纯净版][BT下载][BD-MKV/6.06GB][中文字幕][1080P][韩国,悬疑,剧情,犯罪,. ...

[复制链接]
admin 发表于 2021-7-10 14:07:13 | 显示全部楼层 |阅读模式
-->

◎译  名 非常真相 / Me and Me / 双面追缉(台) / 流逝的时间 / 消失的时间 / ??? ? ?
◎片  名 ??? ??
◎年  代 2020
◎产  地 韩国
◎类  别 悬疑
◎语  言 韩语
◎上映日期 2020-06-18(韩国)
◎IMDb评分  5.9/10 from 157 users
◎IMDb链接  
◎豆瓣评分 5.3/10 from 972 users
◎豆瓣链接 
◎片  长 105分钟
◎导  演 郑镇荣 Jin-yeong Jeong
◎编  剧 郑镇荣 Jin-yeong Jeong
◎主  演 赵震雄 Cho Jin-woong
       裴秀彬 Bae Soo Bin
       车秀妍 Su-yeon Cha
       郑海钧 Hae-kyun Jung
       卢康民 No Kang-min
       金胤成 Kim Yoon-seong
       朴斗植 Doo-sik Park
       李善彬 Sun-bin Lee
       申东美 Dong-Mi Shin
       张元英 Won-yeong Jang


◎标  签 韩国 | 悬疑 | 2020 | 剧情 | 犯罪 | 人性 | 电影 | 黑色幽默

◎简  介  

  秀赫是一个乡村小学的老师。他有一个秘密:每天晚上,他的妻子易英都会变成另一个人。有一天,他的一个学生的父亲知道了他们的秘密,并告知村民易英的身体每晚被一种恶灵所占据。村民一致认为易英非常危险,他们要求易英每晚进入上锁的笼子。结果这对夫妻很快在不明原因的大火中丧生。一名警探被派来调查,他一个接一个地审问村民,村子上的气氛逐渐变得诡异。一天晚上,村民们邀请警探到市政厅喝一杯。喝酒后,警探失去了意识。第二天,警探在之前那个笼子里醒来,但是每个人都称他为“老师”。他意识到自己已经变成了秀赫……

◎获奖情况  

  第41届韩国电影青龙奖(2020)
  最佳新人导演(提名) 郑镇荣
General
Unique ID                                : 21354227614094984879245122748465912081 (0x1010ACB53717DE469773D57312099911)
Complete name                            : Me.and.Me.2020.1080p.BluRay.DTS.x265-10bit-HDS.mkv
Format                                   : Matroska
Format version                           : Version 4
File size                                : 6.06 GiB
Duration                                 : 1 h 44 min
Overall bit rate                         : 8 265 kb/s
Movie name                               : Me and Me 2020 1080p BluRay DTS x265-10bit-HDS
Encoded date                             : UTC 2021-07-08 00:30:02
Writing application                      : mkvmerge v38.0.0 ('The Silent Type') 64-bit
Writing library                          : libebml v1.3.9 + libmatroska v1.5.2

Video
ID                                       : 1
Format                                   : HEVC
Format/Info                              : High Efficiency Video Coding
Format profile                           : Main @High
Codec ID                                 : V_MPEGH/ISO/HEVC
Duration                                 : 1 h 44 min
Bit rate                                 : 6 725 kb/s
Width                                    : 1 920 pixels
Height                                   : 1 040 pixels
Display aspect ratio                     : 1.85:1
Frame rate mode                          : Constant
Frame rate                               : 23.976 (24000/1001) FPS
Color space                              : YUV
Chroma subsampling                       : 4:2:0
Bit depth                                : 10 bits
Bits/(Pixel*Frame)                       : 0.140
Stream size                              : 4.93 GiB (81%)
Title                                    :
Writing library                          : x265 - H.265/HEVC codec
Default                                  : Yes
Forced                                   : No

Audio
ID                                       : 2
Format                                   : DTS
Format/Info                              : Digital Theater Systems
Codec ID                                 : A_DTS
Duration                                 : 1 h 44 min
Bit rate mode                            : Constant
Bit rate                                 : 1 509 kb/s
Channel(s)                               : 6 channels
Channel layout                           : C L R Ls Rs LFE
Sampling rate                            : 48.0 kHz
Frame rate                               : 93.750 FPS (512 SPF)
Bit depth                                : 24 bits
Compression mode                         : Lossy
Stream size                              : 1.11 GiB (18%)
Title                                    : Korean
Language                                 : Korean
Default                                  : Yes
Forced                                   : No

Text #1
ID                                       : 3
Format                                   : PGS
Muxing mode                              : zlib
Codec ID                                 : S_HDMV/PGS
Codec ID/Info                            : Picture based subtitle format used on BDs/HD-DVDs
Duration                                 : 1 h 40 min
Bit rate                                 : 29.4 kb/s
Count of elements                        : 2620
Stream size                              : 21.0 MiB (0%)
Title                                    : CHS
Language                                 : Chinese
Default                                  : Yes
Forced                                   : No

Text #2
ID                                       : 4
Format                                   : PGS
Muxing mode                              : zlib
Codec ID                                 : S_HDMV/PGS
Codec ID/Info                            : Picture based subtitle format used on BDs/HD-DVDs
Duration                                 : 1 h 40 min
Bit rate                                 : 30.1 kb/s
Count of elements                        : 2620
Stream size                              : 21.5 MiB (0%)
Title                                    : CHT
Language                                 : Chinese
Default                                  : No
Forced                                   : No

Menu
00:00:00.000                             : en:Chapter 01
00:08:53.992                             : en:Chapter 02
00:17:23.251                             : en:Chapter 03
00:23:41.420                             : en:Chapter 04
00:33:39.434                             : en:Chapter 05
00:44:22.285                             : en:Chapter 06
00:54:33.520                             : en:Chapter 07
01:03:37.063                             : en:Chapter 08
01:11:21.027                             : en:Chapter 09
01:19:35.646                             : en:Chapter 10
01:29:47.757                             : en:Chapter 11
01:41:27.915                             : en:Chapter 12




                                                                                                                                                                                                        
                                                                                                                                                                                                                                                                                                                                                                                                                                                                                                                                                                                                                                                                                                                                                                                                                                                        
92fbe1c36fccbc9e1349043de1198f89.torrent (19.77 KB, 下载次数: 0)

回复

使用道具 举报

小黑屋|西西论坛

本网站所有资源来自网络,如无意中侵犯了您的权益,请发邮件至 [email protected],立即清除相关链接

GMT+8, 2021-7-24 05:06 , Processed in 0.183703 second(s), 17 queries .

Powered by Discuz! X3.2

© 2001-2013 Comsenz Inc.

快速回复 返回顶部 返回列表