西西论坛

 找回密码
 立即注册
搜索

[狙击手][纯净版][BT下载][WEB-MP4/1.70GB][1080P][伊朗,][高清无水印片源] ... ...

[复制链接]
admin 发表于 2021-7-7 08:22:40 | 显示全部楼层 |阅读模式
-->754d9b7498362e841fa7196768052de6.jpg



◎译  名 狙击手
◎片  名 Sniper
◎年  代 2021
◎产  地 伊朗
◎类  别 动作 / 战争
◎语  言 伊朗语
◎上映日期 2021-01-31(伊朗)
◎导  演 阿里·加法里 Ali Ghaffari
◎主  演 卡姆比斯·迪巴兹 Kambiz Dirbaz
       阿里尔扎·卡玛利 Alireza Kamali
       阿米尔·雷扎·德拉瓦里 Amir Reza Delavari

◎标  签 伊朗

◎简  介

  根据阿卜杜拉索尔·扎林(Abdolrasoul Zarrin)的真实故事,他是伊朗-伊拉克战争的伊朗狙击手
General
Complete name                            : 绝地狙杀.The.Sniper.2021.1080p.WEB-DL.H265.AAC-OurTV.mp4
Format                                   : MPEG-4
Format profile                           : Base Media
Codec ID                                 : isom (isom/iso2/mp41)
File size                                : 1.70 GiB
Duration                                 : 1 h 26 min
Overall bit rate                         : 2 816 kb/s
Writing application                      : OurTV Media Encoder

Video
ID                                       : 1
Format                                   : HEVC
Format/Info                              : High Efficiency Video Coding
Format profile                           : @Main
Codec ID                                 : hev1
Codec ID/Info                            : High Efficiency Video Coding
Duration                                 : 1 h 26 min
Bit rate                                 : 2 621 kb/s
Width                                    : 1 920 pixels
Height                                   : 808 pixels
Display aspect ratio                     : 2.40:1
Frame rate mode                          : Constant
Frame rate                               : 24.000 FPS
Color space                              : YUV
Chroma subsampling                       : 4:2:0
Bit depth                                : 8 bits
Bits/(Pixel*Frame)                       : 0.070
Stream size                              : 1.58 GiB (93%)
Codec configuration box                  : hvcC

Audio
ID                                       : 2
Format                                   : AAC LC
Format/Info                              : Advanced Audio Codec Low Complexity
Codec ID                                 : mp4a-40-2
Duration                                 : 1 h 26 min
Bit rate mode                            : Constant
Bit rate                                 : 192 kb/s
Channel(s)                               : 2 channels
Channel layout                           : L R
Sampling rate                            : 44.1 kHz
Frame rate                               : 43.066 FPS (1024 SPF)
Compression mode                         : Lossy
Stream size                              : 118 MiB (7%)
Default                                  : Yes
Alternate group                          : 1




                                                                                                                                                                                                        
                                                                                                                                                                                                                                                                                                                                                                                                                                                                                                                                                                                                                                                                                                                                                                                                                                                        
c32e71a4f3aee19d16d1af96fd16521b.torrent (8.82 KB, 下载次数: 0)

回复

使用道具 举报

小黑屋|西西论坛

本网站所有资源来自网络,如无意中侵犯了您的权益,请发邮件至 [email protected],立即清除相关链接

GMT+8, 2021-7-24 04:34 , Processed in 0.161132 second(s), 17 queries .

Powered by Discuz! X3.2

© 2001-2013 Comsenz Inc.

快速回复 返回顶部 返回列表