西西论坛

 找回密码
 立即注册
搜索

[阿基米德大战][纯净版][BT下载][BD-MKV/7.30GB][中文字幕][1080P][二战,日本,战争,日 ...

[复制链接]
admin 发表于 2021-7-5 06:48:09 | 显示全部楼层 |阅读模式
-->37aaa9d179f166b1ce9aea057b46719f.jpg



◎译  名 阿基米德大战/The Great War of Archimedes/阿基米德的战争
◎片  名 アルキメデスの大戦
◎年  代 2019
◎产  地 日本
◎类  别 剧情 / 战争
◎语  言 日语
◎上映日期 2019-07-26(日本)
◎片  长 130分钟
◎导  演 山崎贵 Takashi Yamazaki
◎编  剧 山崎贵 Takashi Yamazaki
◎主  演 菅田将晖 Masaki Suda
       馆博 Hiroshi Tachi
       滨边美波 Minami Hamabe
       柄本佑 Tasuku Emoto
       小林克也 Katsuya Kobayashi
       小日向文世 Fumiyo Kohinata
       国村隼 Jun Kunimura
       桥爪功 Isao Hashizume
       田中泯 Min Tanaka
       沟口奈菜 Nana Mizoguchi

◎标  签 二战 | 日本 | 战争 | 日本电影 | 剧情 | 2019 | 菅田将晖 | 漫画改编

◎简  介

  三田纪房人气漫画将拍摄真人电影,山崎贵导演,菅田将晖主演。
  
  故事舞台设定在二战对美开战前,为了设计大和号战舰,山本五十六找到了被称为“阿基米德再生”的天才数学家櫂直。然而,随着计划的深入,櫂直发现了军部不可告人的阴谋。
  
  影片将于明年暑假公映,东宝2019年度大作。

◎获奖情况

  第43届日本电影学院奖 ?(2020)
  最佳男主角(提名) 菅田将晖
  最佳男配角(提名) 柄本佑
  最佳美术指导(提名)
  最佳剪辑(提名)
  
  第7届豆瓣电影年度榜单 ?(2020)
  评分最高的日本电影(提名)
General
Unique ID                                : 290912753653234853750492298384421842943 (0xDADBC222FEE2D889847903C01B0E6FFF)
Complete name                            : Yamato.Schlacht.um.Japan.2019.1080p.BluRay.DTS.x265-10bit-HDS.mkv
Format                                   : Matroska
Format version                           : Version 4
File size                                : 7.30 GiB
Duration                                 : 2 h 9 min
Overall bit rate mode                    : Variable
Overall bit rate                         : 8 065 kb/s
Movie name                               : Yamato Schlacht um Japan 2019 1080p BluRay DTS x265-10bit-HDS
Encoded date                             : UTC 2021-05-14 18:35:25
Writing application                      : mkvmerge v38.0.0 ('The Silent Type') 64-bit
Writing library                          : libebml v1.3.9 + libmatroska v1.5.2

Video
ID                                       : 1
Format                                   : HEVC
Format/Info                              : High Efficiency Video Coding
Format profile                           : Main @High
Codec ID                                 : V_MPEGH/ISO/HEVC
Duration                                 : 2 h 9 min
Bit rate                                 : 6 279 kb/s
Width                                    : 1 920 pixels
Height                                   : 804 pixels
Display aspect ratio                     : 2.40:1
Frame rate mode                          : Constant
Frame rate                               : 24.000 FPS
Color space                              : YUV
Chroma subsampling                       : 4:2:0
Bit depth                                : 10 bits
Bits/(Pixel*Frame)                       : 0.169
Stream size                              : 5.68 GiB (78%)
Title                                    :
Writing library                          : x265 - H.265/HEVC codec
Default                                  : Yes
Forced                                   : No

Audio
ID                                       : 2
Format                                   : DTS XLL
Format/Info                              : Digital Theater Systems
Commercial name                          : DTS-HD Master Audio
Codec ID                                 : A_DTS
Duration                                 : 2 h 9 min
Bit rate mode                            : Variable
Bit rate                                 : 1 743 kb/s
Channel(s)                               : 6 channels
Channel layout                           : C L R Ls Rs LFE
Sampling rate                            : 48.0 kHz
Frame rate                               : 93.750 FPS (512 SPF)
Bit depth                                : 16 bits
Compression mode                         : Lossless
Stream size                              : 1.58 GiB (22%)
Title                                    : Japanese
Language                                 : Japanese
Default                                  : Yes
Forced                                   : No

Text #1
ID                                       : 3
Format                                   : PGS
Muxing mode                              : zlib
Codec ID                                 : S_HDMV/PGS
Codec ID/Info                            : Picture based subtitle format used on BDs/HD-DVDs
Duration                                 : 2 h 2 min
Bit rate                                 : 38.9 kb/s
Count of elements                        : 2930
Stream size                              : 34.2 MiB (0%)
Title                                    : CHS
Language                                 : Chinese
Default                                  : Yes
Forced                                   : No

Text #2
ID                                       : 4
Format                                   : PGS
Muxing mode                              : zlib
Codec ID                                 : S_HDMV/PGS
Codec ID/Info                            : Picture based subtitle format used on BDs/HD-DVDs
Duration                                 : 2 h 2 min
Bit rate                                 : 40.2 kb/s
Count of elements                        : 2930
Stream size                              : 35.3 MiB (0%)
Title                                    : CHT
Language                                 : Chinese
Default                                  : No
Forced                                   : No

Menu
00:00:00.000                             : en:Chapter 01
00:06:46.708                             : en:Chapter 02
00:16:04.375                             : en:Chapter 03
00:29:16.125                             : en:Chapter 04
00:37:32.458                             : en:Chapter 05
00:48:19.167                             : en:Chapter 06
01:00:07.542                             : en:Chapter 07
01:11:14.167                             : en:Chapter 08
01:27:32.833                             : en:Chapter 09
01:46:11.583                             : en:Chapter 10
01:53:36.625                             : en:Chapter 11
02:00:27.500                             : en:Chapter 12




                                                                                                                                                                                                        
                                                                                                                                                                                                                                                                                                                                                                                                                                                                                                                                                                                                                                                                                                                                                                                                                                                        
fb2d5df8c592b7108356a7d20377542f.torrent (62.08 KB, 下载次数: 0)

回复

使用道具 举报

小黑屋|西西论坛

本网站所有资源来自网络,如无意中侵犯了您的权益,请发邮件至 [email protected],立即清除相关链接

GMT+8, 2021-7-24 06:25 , Processed in 0.123772 second(s), 17 queries .

Powered by Discuz! X3.2

© 2001-2013 Comsenz Inc.

快速回复 返回顶部 返回列表