西西论坛

 找回密码
 立即注册
搜索

[抓住稻草的野兽][纯净版][BT下载][WEB-MKV/3.24GB][中文字幕][1080P][犯罪,韩国,悬疑 ...

[复制链接]
admin 发表于 2021-7-1 13:28:27 | 显示全部楼层 |阅读模式
-->3350349d30a1d5cad7202dd29ae1fda1.jpg



◎译  名 抓住稻草的野兽 / 笼子里的野兽(港) / 垂死挣扎的野兽们 / 抓住救命稻草的野兽们(台) / Beasts Clawing at Straws / Beasts That Cling to the Straw
◎片  名 ?????? ?? ?? ???
◎年  代 2020
◎产  地 韩国
◎类  别 惊悚 / 犯罪
◎语  言 韩语
◎上映日期 2020-02-21(韩国)
◎片  长 108分钟
◎导  演 金容勋 Yong-hoon Kim (id:1404506)
◎编  剧 金容勋 Yong-hoon Kim (id:1404506)
       曾根圭介 Keisuke Sone (id:1404507)
◎演  员 全度妍 Do-yeon Jeon (id:1067813)
       郑雨盛 Woo-sung Jung (id:1032365)
       裴晟祐 Sung-Woo Bae (id:1350654)
       尹汝贞 Yeo-jeong Yoon (id:1275611)
       郑满植 Man-shik Jeong (id:1327294)
       陈庆 Jin Gyeong (id:1336400)
       申贤彬 Hyun-bin Shin (id:1377767)
       郑家蓝 Ga-ram  Jung (id:1373071)
       金俊翰 Joon-han Kim (id:1382575)
       朴智焕 Park Ji-hwan (id:1382226)
       许栋元 Heo Dong-won (id:1379562)
       裴振雄 Jin-woong Bae (id:1381049)
       林皓俊 Im Ho-joon (id:1436792)
       李学周 Hak-joo Lee (id:1378899)
       朴正民 Jeong-min Park (id:1335493)
       Nene Kang Nene Kang (id:1449455)
       韩美妍 Meeyeon Han (id:1449454)

◎标  签 犯罪 / 韩国 / 悬疑 / 韩国电影 / 全度妍 / 剧情 / 2020 / 郑雨盛

◎简  介
  因失踪的恋人而负债累累的泰荣(郑雨盛饰)、辛苦打工却只能勉强维持生计的一家之长忠万(裴成宇饰)、想要洗白过去而觊觎他人所有的妍希(全度妍饰),以及高利贷放贷者朴社长(郑满植饰)、因欠债而家庭破碎的美兰(申贤彬饰)、非法滞留者镇泰(郑家蓝饰)、一心为家人而活的英善(陈庆饰)、失忆的顺子(尹汝贞饰),所有身处困境的这些人,都将一个钱袋视为自己人生的最后机会,从而引发了一连串始料未及的事件。

◎获奖情况 (共6项)
  第41届韩国电影青龙奖 (2020)
  最佳女主角(提名)
   └──全度妍 (id:1067813)
  最佳新人男演员(提名)
   └──李学周 (id:1378899)
  最佳新人女演员(提名)
   └──申贤彬 (id:1377767)
  最佳剪辑

  第49届鹿特丹国际电影节 (2020)
  老虎奖 特别荣誉
   └──金容勋 (id:1404506)
  老虎奖(提名)
   └──金容勋 (id:1404506)

General
Unique ID                                : 15747440301291748556243496459689822642 (0xBD8D8C02D04BE460B8B3B8A439089B2)
Complete name                            : EB.mkv
Format                                   : Matroska
Format version                           : Version 4
File size                                : 3.24 GiB
Duration                                 : 1 h 44 min
Overall bit rate                         : 4 455 kb/s
Encoded date                             : UTC 2021-06-30 08:22:34
Writing application                      : mkvmerge v56.1.0 ('My Friend') 64-bit
Writing library                          : libebml v1.4.2 + libmatroska v1.6.4

Video
ID                                       : 1
Format                                   : HEVC
Format/Info                              : High Efficiency Video Coding
Format profile                           : @High
Codec ID                                 : V_MPEGH/ISO/HEVC
Duration                                 : 1 h 44 min
Bit rate                                 : 4 328 kb/s
Width                                    : 1 920 pixels
Height                                   : 800 pixels
Display aspect ratio                     : 2.40:1
Frame rate mode                          : Constant
Frame rate                               : 24.000 FPS
Color space                              : YUV
Chroma subsampling                       : 4:2:0
Bit depth                                : 8 bits
Bits/(Pixel*Frame)                       : 0.117
Stream size                              : 3.15 GiB (97%)
Default                                  : Yes
Forced                                   : No

Audio
ID                                       : 2
Format                                   : AAC LC
Format/Info                              : Advanced Audio Codec Low Complexity
Codec ID                                 : A_AAC-2
Duration                                 : 1 h 44 min
Bit rate                                 : 124 kb/s
Channel(s)                               : 2 channels
Channel layout                           : L R
Sampling rate                            : 44.1 kHz
Frame rate                               : 43.066 FPS (1024 SPF)
Compression mode                         : Lossy
Stream size                              : 92.7 MiB (3%)
Language                                 : Korean
Default                                  : Yes
Forced                                   : No

Text #1
ID                                       : 3
Format                                   : UTF-8
Codec ID                                 : S_TEXT/UTF8
Codec ID/Info                            : UTF-8 Plain Text
Duration                                 : 1 h 37 min
Bit rate                                 : 39 b/s
Count of elements                        : 1327
Stream size                              : 27.8 KiB (0%)
Title                                    : Chinese Simplified
Language                                 : Chinese
Default                                  : Yes
Forced                                   : No

Text #2
ID                                       : 4
Format                                   : UTF-8
Codec ID                                 : S_TEXT/UTF8
Codec ID/Info                            : UTF-8 Plain Text
Duration                                 : 1 h 37 min
Bit rate                                 : 39 b/s
Count of elements                        : 1327
Stream size                              : 27.8 KiB (0%)
Title                                    : Chinese Traditional
Language                                 : Chinese
Default                                  : No
Forced                                   : No

Text #3
ID                                       : 5
Format                                   : UTF-8
Codec ID                                 : S_TEXT/UTF8
Codec ID/Info                            : UTF-8 Plain Text
Duration                                 : 1 h 37 min
Bit rate                                 : 44 b/s
Count of elements                        : 1327
Stream size                              : 32.0 KiB (0%)
Title                                    : English
Language                                 : English
Default                                  : No
Forced                                   : No




                                                                                                                                                                                                        
                                                                                                                                                                                                                                                                                                                                                                                                                                                                                                                                                                                                                                                                                                                                                                                                                                                        
f37f766194bd6028d8155196b1e6e1c4.torrent (12.76 KB, 下载次数: 0)

回复

使用道具 举报

小黑屋|西西论坛

本网站所有资源来自网络,如无意中侵犯了您的权益,请发邮件至 [email protected],立即清除相关链接

GMT+8, 2021-7-24 05:46 , Processed in 0.154819 second(s), 17 queries .

Powered by Discuz! X3.2

© 2001-2013 Comsenz Inc.

快速回复 返回顶部 返回列表