西西论坛

 找回密码
 立即注册
搜索

金鹅档案/神探急先锋 The.File.of.the.Golden.Goose.1969.1080p.BluRay.x264-UNVEiL 1 ...

[复制链接]
admin 发表于 4 天前 | 显示全部楼层 |阅读模式
金鹅档案/神探急先锋 The.File.of.the.Golden.Goose.1969.1080p.BluRay.x264-UNVEiL 15.29GB                                                                                                                                                                                                                                                                                                                                                                                                                                                                                                                                        -->
帖子完整标题:金鹅档案/神探急先锋 The.File.of.the.Golden.Goose.1969.1080p.BluRay.x264-UNVEiL 15.29GB



f2fbaf2a961b431ee65135284f33433d.jpg

[/url]

◎译  名 金鹅档案/神探急先锋
◎片  名 The File of the Golden Goose
◎年  代 1969
◎产  地 英国
◎类  别 剧情 / 惊悚 / 犯罪
◎语  言 英语
◎上映日期 1969-10-02
◎豆瓣评分 /10 from 0 users
◎豆瓣链接 
◎片  长 109 分钟
◎导  演 萨姆·沃纳梅克 Sam Wanamaker
◎编  剧 詹姆斯·B·戈登 James B. Gordon / 约翰·C. 希金斯 John C. Higgins
◎主  演 阿德琳妮·柯瑞 Adrienne Corri
       沃尔特·戈塔尔 Walter Gotell
       Anthony Jacobs
       Ken Jones
       Denis Shaw
       宋静秀 Lucille Soong
       Larry Taylor
       Karel Stepanek
       阿诺德·戴蒙德 Arnold Diamond
       尤·伯连纳 Yul Brynner
       Ivor Dean
       格拉汉姆·克罗登 Graham Crowden
       John Barrie
       爱德华·伍德华德 Edward Woodward
       帕特里克·艾伦 Patrick Allen
       查尔斯·格雷 Charles Gray
       Hilary Heath
       休·迈克德莫特 Hugh McDermott
       Bernard Archard

◎标  签 YulBrynner | 英国 | 犯罪 | 尤·伯连纳 | 动作 | 6.3 | 1969 | **

◎简  介

  暂无相关剧情介绍
Video
ID                                       : 1
Format                                   : AVC
Format/Info                              : Advanced Video Codec
Format profile                           :
Format settings                          : CABAC / 4 Ref Frames
Format settings, CABAC                   : Yes
Format settings, Reference frames        : 4 frames
Codec ID                                 : V_MPEG4/ISO/AVC
Duration                                 : 1 h 46 min
Bit rate                                 : 19.5 Mb/s
Width                                    : 1 792 pixels
Height                                   : 1 080 pixels
Display aspect ratio                     : 5:3
Frame rate mode                          : Constant
Frame rate                               : 23.976 (24000/1001/189150) FPS
Color space                              : YUV
Chroma subsampling                       : 4:2:0
Bit depth                                : 8 bits
Scan type                                : Progressive
Bits/(Pixel*Frame)                       : 0.420
Stream size                              : 14.5 GiB (95%)
Writing library                          : x264 core 163 r3059 b684ebe
Encoding settings                        : cabac=1 / ref=4 / deblock=1:-3:-3 / analyse=0x3:0x133 / me=umh / subme=9 / psy=1 / psy_rd=1.00:0.00 / mixed_ref=1 / me_range=16 / chroma_me=1 / trellis=2 / 8x8dct=1 / cqm=0 / deadzone=21,11 / fast_pskip=0 / chroma_qp_offset=-2 / threads=34 / lookahead_threads=2 / sliced_threads=0 / nr=0 / decimate=1 / interlaced=0 / bluray_compat=0 / constrained_intra=0 / bframes=3 / b_pyramid=2 / b_adapt=2 / b_bias=0 / direct=3 / weightb=1 / open_gop=0 / weightp=2 / keyint=250 / keyint_min=23 / scenecut=40 / intra_refresh=0 / rc_lookahead=60 / rc=crf / mbtree=1 / crf=18.4 / qcomp=0.60 / qpmin=0 / qpmax=69 / qpstep=4 / ip_ratio=1.40 / aq=1:1.00
Language                                 : English
Default                                  : Yes
Forced                                   : No

Audio
ID                                       : 2
Format                                   : FLAC
Format/Info                              : Free Lossless Audio Codec
Codec ID                                 : A_FLAC
Duration                                 : 1 h 46 min
Bit rate mode                            : Variable
Bit rate                                 : 1 106 kb/s
Channel(s)                               : 2 channels
Channel layout                           : L R
Sampling rate                            : 48.0 kHz
Frame rate                               : 11.719 FPS (4096 SPF)
Bit depth                                : 24 bits
Compression mode                         : Lossless
Stream size                              : 841 MiB (5%)
Writing library                          : libFLAC 1.3.2 (UTC 2017-01-01)
Language                                 : English
Default                                  : Yes
Forced                                   : No

Text #1
ID                                       : 3
Format                                   : PGS
Muxing mode                              : zlib
Codec ID                                 : S_HDMV/PGS
Codec ID/Info                            : Picture based subtitle format used on BDs/HD-DVDs
Duration                                 : 1 h 45 min
Bit rate                                 : 19.1 kb/s
Count of elements                        : 2633
Stream size                              : 14.4 MiB (0%)
Language                                 : English
Default                                  : No
Forced                                   : No

Text #2
ID                                       : 4
Format                                   : PGS
Muxing mode                              : zlib
Codec ID                                 : S_HDMV/PGS
Codec ID/Info                            : Picture based subtitle format used on BDs/HD-DVDs
Duration                                 : 1 h 45 min
Bit rate                                 : 22.3 kb/s
Count of elements                        : 2633
Stream size                              : 16.8 MiB (0%)
Language                                 : German
Default                                  : No
Forced                                   : No

Menu
00:00:00.000                             : en:Chapter 01
00:02:41.411                             : en:Chapter 02
00:07:48.802                             : en:Chapter 03
00:16:04.881                             : en:Chapter 04
00:25:09.591                             : en:Chapter 05
00:33:11.198                             : en:Chapter 06
00:42:36.095                             : en:Chapter 07
00:53:51.395                             : en:Chapter 08
01:06:15.722                             : en:Chapter 09
01:17:15.840                             : en:Chapter 10
01:31:30.819                             : en:Chapter 11

c93085c72e96201b6d6dcd609ab1cd15.jpg

[/url]



                                                                                                                                                                                                        
                                                                                                                                                                                                                                                                                                                                                                                                                                                                                                                                                                                                                                                                                                                                                                                                                                                        
7ac42615cbd23c098221f95c21856df7.torrent (77.32 KB, 下载次数: 0)

回复

使用道具 举报

小黑屋|西西论坛

本网站所有资源来自网络,如无意中侵犯了您的权益,请发邮件至 [email protected],立即清除相关链接

GMT+8, 2021-6-15 02:07 , Processed in 0.067035 second(s), 17 queries .

Powered by Discuz! X3.2

© 2001-2013 Comsenz Inc.

快速回复 返回顶部 返回列表