西西论坛

 找回密码
 立即注册
搜索

亲爱的妈咪/妈咪挚爱 Mommie.Dearest.1981.REMASTERED.1080p.BluRay.x264.DTS-FGT 11. ...

[复制链接]
admin 发表于 4 天前 | 显示全部楼层 |阅读模式
亲爱的妈咪/妈咪挚爱 Mommie.Dearest.1981.REMASTERED.1080p.BluRay.x264.DTS-FGT 11.71GB                                                                                                                                                                                                                                                                                                                                                                                                                                                                                                                                        -->
帖子完整标题:亲爱的妈咪/妈咪挚爱 Mommie.Dearest.1981.REMASTERED.1080p.BluRay.x264.DTS-FGT 11.71GB



9e61369964169b7f6cc0d7b3e424f118.jpg

[/url]

◎译  名 亲爱的妈咪/妈咪挚爱/琼·克劳馥传
◎片  名 Mommie Dearest
◎年  代 1981
◎产  地 美国
◎类  别 剧情 / 传记
◎语  言 英语
◎上映日期 1981-09-18
◎豆瓣评分 5.9/10 from 246 users
◎豆瓣链接 
◎片  长 129 分钟
◎导  演 弗兰克·佩里 Frank Perry / 弗兰克·佩里 Frank Perry
◎编  剧 克里斯蒂娜·克劳馥 Christina Crawford / 弗兰克·佩里 Frank Perry / 弗兰克·雅布兰斯 Frank Yablans / Tracy Hotchner / 弗兰克·佩里 Frank Perry / 罗伯特·格彻尔 Robert Getchell
◎主  演 乔斯琳·白兰度 Jocelyn Brando
       霍华德·达·席尔瓦 Howard Da Silva
       Carolyn Coates
       菲利普·R·艾伦 Phillip R. Allen
       拉特安亚·阿尔达 Rutanya Alda
       Selma Archerd
       罗伯特·哈珀 Robert Harper
       S·约翰·劳纳 S. John Launer
       David Price
       山德·贝克利 Xander Berkeley
       史蒂夫·弗罗斯特 Steve Forrest
       James Kirkwood Jr.
       费·唐纳薇 Faye Dunaway
       Josh Gans
       Michael Talbott
       玛拉·霍贝尔 Mara Hobel
       维吉妮娅·凯泽 Virginia Kiser
       皮特·杰森 Peter Jason
       Harry Goz
       Russ Marin
       Norman Palmer
       贝莉塔·莫里诺 Belita Moreno
       普里西拉·珀伊特 Priscilla Pointer
       Michael Edwards
       Michael Hawkins
       Alice Nunn
       戴安娜·斯卡尔维德 Diana Scarwid
       Jerry Douglas
       亚瑟·塔谢尔 Arthur Taxier
       Jeremy Scott Reinbolt

◎标  签 传记 | 琼·克劳馥 | 美国 | 美国电影 | Faye_Dundaway | 1981 | cult | FayeDundaway

◎简  介

  赫赫有名的好莱坞女明星琼克劳馥(费·唐纳薇 Faye Dunaway 饰)一直都想有一个自己的孩子,然而她的身体已经无法再怀孕了,于是,她和情人格雷格(史蒂夫·弗罗斯特 Steve Forrest 饰)领养了一个女婴取名为克里斯蒂娜(戴安娜·斯卡维德 Diana Scarwid 饰)。随着克里斯蒂娜的年岁增长,琼克劳馥在影坛之中的地位亦越来越低,当她因为影片不卖座而遭到了制片公司的开除之后,她将所有的怨气都发泄在了克里斯蒂娜的身上。
  
  琼克劳馥对于克里斯蒂娜的虐待日渐升级,她不仅常常对其暴力相向,还把她送进了修道院与世隔绝。克里斯蒂娜最终还是走上了和养母一样的道路——成为一名女演员。
Video
ID                                       : 1
Format                                   : AVC
Format/Info                              : Advanced Video Codec
Format profile                           :
Format settings                          : CABAC / 4 Ref Frames
Format settings, CABAC                   : Yes
Format settings, Reference frames        : 4 frames
Codec ID                                 : V_MPEG4/ISO/AVC
Duration                                 : 2 h 8 min
Bit rate                                 : 11.5 Mb/s
Width                                    : 1 920 pixels
Height                                   : 1 036 pixels
Display aspect ratio                     : 1.85:1
Frame rate mode                          : Constant
Frame rate                               : 23.976 (24000/1001/189150) FPS
Color space                              : YUV
Chroma subsampling                       : 4:2:0
Bit depth                                : 8 bits
Scan type                                : Progressive
Bits/(Pixel*Frame)                       : 0.241
Stream size                              : 10.3 GiB (88%)
Writing library                          : x264 core 148 r2748 97eaef2
Encoding settings                        : cabac=1 / ref=4 / deblock=1:-2:-2 / analyse=0x3:0x113 / me=umh / subme=9 / psy=1 / psy_rd=1.00:0.15 / mixed_ref=1 / me_range=16 / chroma_me=1 / trellis=2 / 8x8dct=1 / cqm=0 / deadzone=21,11 / fast_pskip=1 / chroma_qp_offset=-3 / threads=72 / lookahead_threads=3 / sliced_threads=0 / nr=0 / decimate=1 / interlaced=0 / bluray_compat=0 / constrained_intra=0 / bframes=3 / b_pyramid=2 / b_adapt=1 / b_bias=0 / direct=3 / weightb=1 / open_gop=0 / weightp=2 / keyint=250 / keyint_min=25 / scenecut=40 / intra_refresh=0 / rc_lookahead=50 / rc=2pass / mbtree=1 / bitrate=11500 / ratetol=1.0 / qcomp=0.60 / qpmin=0 / qpmax=69 / qpstep=4 / cplxblur=20.0 / qblur=0.5 / vbv_maxrate=31250 / vbv_bufsize=31250 / nal_hrd=none / filler=0 / ip_ratio=1.40 / aq=1:1.00
Language                                 : English
Default                                  : Yes
Forced                                   : No

Audio
ID                                       : 2
ID in the original source medium         : 4352 (0x1100)
Format                                   : DTS
Format/Info                              : Digital Theater Systems
Codec ID                                 : A_DTS
Duration                                 : 2 h 8 min
Bit rate mode                            : Constant
Bit rate                                 : 1 509 kb/s
Channel(s)                               : 6 channels
Channel layout                           : C L R Ls Rs LFE
Sampling rate                            : 48.0 kHz
Frame rate                               : 93.750 FPS (512 SPF)
Bit depth                                : 24 bits
Compression mode                         : Lossy
Stream size                              : 1.36 GiB (12%)
Title                                    : Surround 5.1
Language                                 : English
Default                                  : No
Forced                                   : No
Original source medium                   : Blu-ray

Text
ID                                       : 3
Format                                   : UTF-8
Codec ID                                 : S_TEXT/UTF8
Codec ID/Info                            : UTF-8 Plain Text
Duration                                 : 2 h 0 min
Bit rate                                 : 49 b/s
Count of elements                        : 1414
Stream size                              : 43.5 KiB (0%)
Language                                 : English
Default                                  : Yes
Forced                                   : No

Menu
00:00:00.000                             : Chapter 01
00:08:25.838                             : Chapter 02
00:15:21.170                             : Chapter 03
00:20:53.460                             : Chapter 04
00:31:35.476                             : Chapter 05
00:39:58.604                             : Chapter 06
00:50:01.707                             : Chapter 07
00:56:23.338                             : Chapter 08
00:59:07.126                             : Chapter 09
01:07:10.901                             : Chapter 10
01:12:33.015                             : Chapter 11
01:27:56.354                             : Chapter 12
01:35:00.695                             : Chapter 13
01:46:32.094                             : Chapter 14
01:57:01.889                             : Chapter 15

992e68d8b8b6abffb5012149da363a2d.png

[/url]8c01695deb488ac0329fb187a9c94409.png

[/url]a1bff736302a442021a472cf6942c2dd.png

[/url]



                                                                                                                                                                                                        
                                                                                                                                                                                                                                                                                                                                                                                                                                                                                                                                                                                                                                                                                                                                                                                                                                                        
9eeac86464a975a9abeae5681893b311.torrent (59.2 KB, 下载次数: 0)

回复

使用道具 举报

小黑屋|西西论坛

本网站所有资源来自网络,如无意中侵犯了您的权益,请发邮件至 [email protected],立即清除相关链接

GMT+8, 2021-6-15 02:53 , Processed in 0.065865 second(s), 17 queries .

Powered by Discuz! X3.2

© 2001-2013 Comsenz Inc.

快速回复 返回顶部 返回列表