西西论坛

 找回密码
 立即注册
搜索

闪回 Flashback.2020.1080p.BluRay.x264-PiGNUS 5.86GB

[复制链接]
admin 发表于 4 天前 | 显示全部楼层 |阅读模式
闪回 Flashback.2020.1080p.BluRay.x264-PiGNUS 5.86GB                                                                                                                                                                                                                                                                                                                                                                                                                                                                                                                                        -->
帖子完整标题:闪回 Flashback.2020.1080p.BluRay.x264-PiGNUS 5.86GB



5bf3dc2432762fe491ecf9de296c8062.jpg

[/url]

◎译  名 闪回/The Education of Fredrick Fitzell/弗雷德里克·菲茨尔的教育
◎片  名 Flashback
◎年  代 2020
◎产  地 加拿大
◎类  别 剧情 / 惊悚
◎语  言 英语
◎上映日期 2020-10-08(锡切斯线上电影节) / 2021-06-04(美国)
◎豆瓣评分 5.2/10 from 205 users
◎豆瓣链接 
◎片  长 97分钟
◎导  演 克里斯托弗·麦克布莱德 Christopher MacBride
◎编  剧 克里斯托弗·麦克布莱德 Christopher MacBride
◎主  演 迪伦·奥布莱恩 Dylan O'Brien
       麦卡·梦露 Maika Monroe
       汉娜·格罗斯 Hannah Gross
       凯尔·吉克瑞斯特 Keir Gilchrist
       阿曼达·布鲁盖尔 Amanda Brugel
       艾莫里·科恩 Emory Cohen
       亚伦·普尔 Aaron Poole
       乔什·克鲁达斯 Josh Cruddas
       茜玛·费舍尔 Sima Fisher
       伊恩·马休斯 Ian Matthews
       唐纳德·布尔达 Donald Burda
       兰登·诺里斯 Landon Norris
       赫舍尔·布拉特 Hershel Blatt

◎标  签 悬疑 | 惊悚 | 加拿大 | 迪伦·奥布莱恩 | 2020 | 电影 | 麦卡·梦露 | 美国电影

◎简  介

  弗雷德里克·菲茨尔过着他最美好的生活,可是他开始对一个在高中时消失的女孩辛迪产生了可怕的幻觉。他向曾经和他一起服用神秘药物“Mercury”的老朋友求助,但他意识到唯一的解决办法就在自己的记忆深处。于是,弗雷德里克为了了解真相,展开了一场可怕的精神奥德赛。
Video
ID                                       : 1
Format                                   : AVC
Format/Info                              : Advanced Video Codec
Format profile                           :
Format settings                          : CABAC / 5 Ref Frames
Format settings, CABAC                   : Yes
Format settings, Reference frames        : 5 frames
Codec ID                                 : V_MPEG4/ISO/AVC
Duration                                 : 1 h 37 min
Bit rate                                 : 5 137 kb/s
Width                                    : 1 920 pixels
Height                                   : 804 pixels
Display aspect ratio                     : 2.40:1
Frame rate mode                          : Constant
Frame rate                               : 23.976 (24000/1001/189150) FPS
Color space                              : YUV
Chroma subsampling                       : 4:2:0
Bit depth                                : 8 bits
Scan type                                : Progressive
Bits/(Pixel*Frame)                       : 0.139
Stream size                              : 3.50 GiB (60%)
Writing library                          : x264 core 163 r3059 b684ebe
Encoding settings                        : cabac=1 / ref=5 / deblock=1:-3:-3 / analyse=0x3:0x133 / me=umh / subme=9 / psy=1 / psy_rd=1.00:0.00 / mixed_ref=1 / me_range=16 / chroma_me=1 / trellis=2 / 8x8dct=1 / cqm=0 / deadzone=21,11 / fast_pskip=1 / chroma_qp_offset=-2 / threads=25 / lookahead_threads=2 / sliced_threads=0 / nr=0 / decimate=1 / interlaced=0 / bluray_compat=0 / constrained_intra=0 / bframes=3 / b_pyramid=2 / b_adapt=2 / b_bias=0 / direct=3 / weightb=1 / open_gop=0 / weightp=2 / keyint=250 / keyint_min=23 / scenecut=40 / intra_refresh=0 / rc_lookahead=60 / rc=crf / mbtree=1 / crf=15.5 / qcomp=0.60 / qpmin=0 / qpmax=69 / qpstep=4 / ip_ratio=1.40 / aq=1:1.00
Default                                  : Yes
Forced                                   : No

Audio #1
ID                                       : 2
Format                                   : DTS XLL
Format/Info                              : Digital Theater Systems
Commercial name                          : DTS-HD Master Audio
Codec ID                                 : A_DTS
Duration                                 : 1 h 37 min
Bit rate mode                            : Variable
Bit rate                                 : 3 330 kb/s
Channel(s)                               : 6 channels
Channel layout                           : C L R Ls Rs LFE
Sampling rate                            : 48.0 kHz
Frame rate                               : 93.750 FPS (512 SPF)
Bit depth                                : 24 bits
Compression mode                         : Lossless
Stream size                              : 2.27 GiB (39%)
Language                                 : English
Default                                  : Yes
Forced                                   : No

Audio #2
ID                                       : 3
Format                                   : AAC LC
Format/Info                              : Advanced Audio Codec Low Complexity
Codec ID                                 : A_AAC-2
Duration                                 : 1 h 37 min
Bit rate                                 : 110 kb/s
Channel(s)                               : 2 channels
Channel layout                           : L R
Sampling rate                            : 48.0 kHz
Frame rate                               : 46.875 FPS (1024 SPF)
Compression mode                         : Lossy
Delay relative to video                  : 9 ms
Stream size                              : 76.8 MiB (1%)
Title                                    : Commentary
Language                                 : English
Default                                  : No
Forced                                   : No

Text #1
ID                                       : 4
Format                                   : UTF-8
Codec ID                                 : S_TEXT/UTF8
Codec ID/Info                            : UTF-8 Plain Text
Duration                                 : 8 s 175 ms
Bit rate                                 : 46 b/s
Count of elements                        : 2
Stream size                              : 48.0 Bytes (0%)
Title                                    : English Forced
Language                                 : English
Default                                  : Yes
Forced                                   : Yes

Text #2
ID                                       : 5
Format                                   : PGS
Muxing mode                              : zlib
Codec ID                                 : S_HDMV/PGS
Codec ID/Info                            : Picture based subtitle format used on BDs/HD-DVDs
Duration                                 : 1 h 30 min
Bit rate                                 : 22.8 kb/s
Count of elements                        : 1890
Stream size                              : 14.8 MiB (0%)
Title                                    : English SDH
Language                                 : English
Default                                  : No
Forced                                   : No

Text #3
ID                                       : 6
Format                                   : PGS
Muxing mode                              : zlib
Codec ID                                 : S_HDMV/PGS
Codec ID/Info                            : Picture based subtitle format used on BDs/HD-DVDs
Duration                                 : 1 h 35 min
Bit rate                                 : 16.3 kb/s
Count of elements                        : 1468
Stream size                              : 11.2 MiB (0%)
Title                                    : Spanish
Language                                 : Spanish
Default                                  : No
Forced                                   : No

Text #4
ID                                       : 7
Format                                   : PGS
Muxing mode                              : zlib
Codec ID                                 : S_HDMV/PGS
Codec ID/Info                            : Picture based subtitle format used on BDs/HD-DVDs
Duration                                 : 8 s 175 ms
Bit rate                                 : 31.3 kb/s
Count of elements                        : 4
Stream size                              : 31.3 KiB (0%)
Title                                    : English
Language                                 : English
Default                                  : No
Forced                                   : No

Menu
00:00:00.000                             : Chapter 01
00:05:02.886                             : Chapter 02
00:11:01.494                             : Chapter 03
00:17:24.377                             : Chapter 04
00:22:37.898                             : Chapter 05
00:29:05.035                             : Chapter 06
00:33:10.322                             : Chapter 07
00:37:20.155                             : Chapter 08
00:44:24.954                             : Chapter 09
00:48:38.916                             : Chapter 10
00:53:47.850                             : Chapter 11
01:03:08.702                             : Chapter 12
01:08:55.214                             : Chapter 13
01:14:11.989                             : Chapter 14
01:23:46.188                             : Chapter 15
01:28:09.910                             : Chapter 16
01:37:34.640                             : Chapter 17

4c117e1d60d83b894ab7ae9c72178958.jpg

[/url]



                                                                                                                                                                                                        
                                                                                                                                                                                                                                                                                                                                                                                                                                                                                                                                                                                                                                                                                                                                                                                                                                                        
61796953804c995c1054812835df2a09.torrent (30.09 KB, 下载次数: 0)

回复

使用道具 举报

小黑屋|西西论坛

本网站所有资源来自网络,如无意中侵犯了您的权益,请发邮件至 [email protected],立即清除相关链接

GMT+8, 2021-6-15 02:31 , Processed in 0.065543 second(s), 17 queries .

Powered by Discuz! X3.2

© 2001-2013 Comsenz Inc.

快速回复 返回顶部 返回列表