西西论坛

 找回密码
 立即注册
搜索

约尔:未来猎手 Yor.1983.REPACK.1080p.BLURAY.X264-WATCHABLE 10.86GB

[复制链接]
admin 发表于 4 天前 | 显示全部楼层 |阅读模式
约尔:未来猎手 Yor.1983.REPACK.1080p.BLURAY.X264-WATCHABLE 10.86GB                                                                                                                                                                                                                                                                                                                                                                                                                                                                                                                                        -->
帖子完整标题:约尔:未来猎手 Yor.1983.REPACK.1080p.BLURAY.X264-WATCHABLE 10.86GB



d59cea9f3e94fca3016b60ce1ea24096.jpg

[/url]

◎译  名 约尔:未来猎手
◎片  名 Yor - The Hunter from the Future
◎年  代 1983
◎产  地 意大利,法国,土耳其
◎类  别 科幻
◎语  言 英语
◎上映日期 1983-08-19
◎豆瓣评分 /10 from 0 users
◎豆瓣链接 
◎片  长 USA: 88 分钟
◎导  演 安东尼奥·马格赫特 Antonio Margheriti
◎编  剧 Juan Zanotto / 安东尼奥·马格赫特 Antonio Margheriti
◎主  演 莱伯·布朗 Reb Brown
       柯瑞妮·克莱瑞 Corinne Clery
       卢西亚诺·皮格齐 Luciano Pigozzi
       约翰·斯坦纳 John Steiner
       Yadigar Ejder
       内洛·帕扎菲尼 Nello Pazzafini
       凯荷·安德烈 Carole André
       格莱格·斯奈哥夫 Gregory Snegoff
       塞尔吉奥·尼古拉 Sergio Nicolai

◎标  签 科幻 | 意大利 | sci-fi | B级片 | 80sALTERNATIVE | 1983 | 法国 | 妖妖舞

◎简  介

  一个战士在一个看似史前的荒地中寻找他的真正起源。A warrior seeks his true origins in a seemingly prehistoric [email?protected]https://www.zhuijukan.com/kehuan/yueerweilailieshou/
Video
ID                                       : 1
Format                                   : AVC
Format/Info                              : Advanced Video Codec
Format profile                           :
Format settings                          : 4 Ref Frames
Format settings, CABAC                   : No
Format settings, Reference frames        : 4 frames
Codec ID                                 : V_MPEG4/ISO/AVC
Duration                                 : 1 h 28 min
Bit rate                                 : 17.1 Mb/s
Width                                    : 1 920 pixels
Height                                   : 1 080 pixels
Display aspect ratio                     : 16:9
Frame rate mode                          : Constant
Frame rate                               : 23.976 (24000/1001/189150) FPS
Color space                              : YUV
Chroma subsampling                       : 4:2:0
Bit depth                                : 8 bits
Scan type                                : Progressive
Bits/(Pixel*Frame)                       : 0.345
Stream size                              : 10.6 GiB (98%)
Writing library                          : x264 core 161 r3053 c347e7a
Encoding settings                        : cabac=0 / ref=4 / deblock=1:0:0 / analyse=0x3:0 / me=umh / subme=9 / psy=1 / psy_rd=1.00:0.00 / mixed_ref=0 / me_range=16 / chroma_me=1 / trellis=2 / 8x8dct=1 / cqm=0 / deadzone=21,11 / fast_pskip=0 / chroma_qp_offset=-2 / threads=24 / lookahead_threads=2 / sliced_threads=0 / nr=0 / decimate=0 / interlaced=0 / bluray_compat=0 / constrained_intra=0 / bframes=3 / b_pyramid=2 / b_adapt=2 / b_bias=0 / direct=3 / weightb=0 / open_gop=0 / weightp=2 / keyint=250 / keyint_min=23 / scenecut=40 / intra_refresh=0 / rc=crf / mbtree=0 / crf=20.0 / qcomp=0.60 / qpmin=0 / qpmax=69 / qpstep=4 / ip_ratio=1.40 / pb_ratio=1.30 / aq=1:1.00
Default                                  : Yes
Forced                                   : No
Color range                              : Limited
Color primaries                          : BT.709
Transfer characteristics                 : BT.709
Matrix coefficients                      : BT.709

Audio
ID                                       : 2
Format                                   : FLAC
Format/Info                              : Free Lossless Audio Codec
Codec ID                                 : A_FLAC
Duration                                 : 1 h 28 min
Bit rate mode                            : Variable
Bit rate                                 : 368 kb/s
Channel(s)                               : 2 channels
Channel layout                           : L R
Sampling rate                            : 48.0 kHz
Frame rate                               : 10.417 FPS (4608 SPF)
Bit depth                                : 16 bits
Compression mode                         : Lossless
Stream size                              : 234 MiB (2%)
Writing library                          : Lavf58.43.100
Language                                 : English
Default                                  : Yes
Forced                                   : No

Text
ID                                       : 3
Format                                   : PGS
Muxing mode                              : zlib
Codec ID                                 : S_HDMV/PGS
Codec ID/Info                            : Picture based subtitle format used on BDs/HD-DVDs
Duration                                 : 1 h 28 min
Bit rate                                 : 16.1 kb/s
Count of elements                        : 1513
Stream size                              : 10.2 MiB (0%)
Language                                 : English
Default                                  : No
Forced                                   : No

Menu
00:00:00.000                             : en:Chapter 01
00:07:34.203                             : en:Chapter 02
00:19:13.152                             : en:Chapter 03
00:27:15.175                             : en:Chapter 04
00:39:13.225                             : en:Chapter 05
00:47:05.948                             : en:Chapter 06
00:56:38.770                             : en:Chapter 07
01:03:40.817                             : en:Chapter 08
01:16:50.564                             : en:Chapter 09
01:27:23.738                             : en:Chapter 10

d56c665abf16b293ee4459fe91a09e90.png

[/url]2b206debc1211ef0c3a379fa26f54241.png

[/url]5fe18d4f6be9d9493c165c096157476c.png

[/url]



                                                                                                                                                                                                        
                                                                                                                                                                                                                                                                                                                                                                                                                                                                                                                                                                                                                                                                                                                                                                                                                                                        
163a67367636eebc6f4b72564b949f96.torrent (54.96 KB, 下载次数: 0)

回复

使用道具 举报

小黑屋|西西论坛

本网站所有资源来自网络,如无意中侵犯了您的权益,请发邮件至 [email protected],立即清除相关链接

GMT+8, 2021-6-15 02:14 , Processed in 0.063229 second(s), 17 queries .

Powered by Discuz! X3.2

© 2001-2013 Comsenz Inc.

快速回复 返回顶部 返回列表