西西论坛

 找回密码
 立即注册
搜索

飙速宅男 Re:RIDE/飙速宅男一期总集篇 Yowamushi.Pedal.Re.Ride.2014.JAPANESE.1080p. ...

[复制链接]
admin 发表于 5 天前 | 显示全部楼层 |阅读模式
飙速宅男 Re:RIDE/飙速宅男一期总集篇 Yowamushi.Pedal.Re.Ride.2014.JAPANESE.1080p.BluRay.x264.F                                                                                                                                                                                                                                                                                                                                                                                                                                                                                                                                        -->
帖子完整标题:飙速宅男 Re:RIDE/飙速宅男一期总集篇 Yowamushi.Pedal.Re.Ride.2014.JAPANESE.1080p.BluRay.x264.FLAC2.0-NY 6.32GB



01ca763567c47c7892c576d312753706.jpg

[/url]

◎译  名 飙速宅男 Re:RIDE/飙速宅男一期总集篇
◎片  名 弱虫ペダル Re:RIDE
◎年  代 2014
◎产  地 日本
◎类  别 动画
◎语  言 日语
◎上映日期 2014-09-19(日本)
◎豆瓣评分 7.3/10 from 185 users
◎豆瓣链接 
◎片  长 89分钟
◎导  演 锅岛修 Osamu Nabeshima
◎编  剧 吉田玲子 Reiko Yoshida
◎主  演 山下大辉 Daiki Yamashita
       鸟海浩辅 Kosuke Toriumi
       安元洋贵 Hiroki Yasumoto
       森久保祥太郎 Shotaro Morikubo
       伊藤健太郎 Kentar? It?
       福岛润 Jun Fukushima

◎标  签 剧场版 | 日本动画 | 动画 | 日本 | 2014 | アニメ | Anime | 运动

◎简  介

  テレビアニメ第1期に新規カットを加え再編集した『弱虫ペダル Re:RIDE』が同年9月19日より2週間の期間限定で劇場公開された。
Video
ID                                       : 1
Format                                   : AVC
Format/Info                              : Advanced Video Codec
Format profile                           :
Format settings                          : CABAC / 4 Ref Frames
Format settings, CABAC                   : Yes
Format settings, Reference frames        : 4 frames
Codec ID                                 : V_MPEG4/ISO/AVC
Duration                                 : 1 h 28 min
Bit rate                                 : 9 491 kb/s
Width                                    : 1 920 pixels
Height                                   : 1 080 pixels
Display aspect ratio                     : 16:9
Frame rate mode                          : Constant
Frame rate                               : 23.976 (24000/1001/189150) FPS
Color space                              : YUV
Chroma subsampling                       : 4:2:0
Bit depth                                : 8 bits
Scan type                                : Progressive
Bits/(Pixel*Frame)                       : 0.191
Stream size                              : 5.87 GiB (93%)
Writing library                          : x264 core 157 r2935 545de2f
Encoding settings                        : cabac=1 / ref=4 / deblock=1:-3:-3 / analyse=0x3:0x133 / me=umh / subme=10 / psy=1 / psy_rd=1.00:0.00 / mixed_ref=1 / me_range=32 / chroma_me=1 / trellis=2 / 8x8dct=1 / cqm=0 / deadzone=21,11 / fast_pskip=0 / chroma_qp_offset=-2 / threads=30 / lookahead_threads=7 / sliced_threads=0 / nr=0 / decimate=0 / interlaced=0 / bluray_compat=0 / constrained_intra=0 / bframes=16 / b_pyramid=2 / b_adapt=2 / b_bias=0 / direct=3 / weightb=1 / open_gop=0 / weightp=2 / keyint=240 / keyint_min=24 / scenecut=40 / intra_refresh=0 / rc_lookahead=60 / rc=crf / mbtree=0 / crf=17.0 / qcomp=0.60 / qpmin=0 / qpmax=69 / qpstep=4 / vbv_maxrate=62500 / vbv_bufsize=78125 / crf_max=0.0 / nal_hrd=none / filler=0 / ip_ratio=1.40 / pb_ratio=1.30 / aq=2:1.00
Default                                  : Yes
Forced                                   : No
Color range                              : Limited
Color primaries                          : BT.709
Transfer characteristics                 : BT.709
Matrix coefficients                      : BT.709

Audio
ID                                       : 2
Format                                   : FLAC
Format/Info                              : Free Lossless Audio Codec
Codec ID                                 : A_FLAC
Duration                                 : 1 h 28 min
Bit rate mode                            : Variable
Bit rate                                 : 716 kb/s
Channel(s)                               : 2 channels
Sampling rate                            : 48.0 kHz
Frame rate                               : 11.719 FPS (4096 SPF)
Bit depth                                : 16 bits
Compression mode                         : Lossless
Stream size                              : 454 MiB (7%)
Writing library                          : libFLAC 1.2.1 (UTC 2007-09-17)
Language                                 : Japanese
Default                                  : Yes
Forced                                   : No

Text
ID                                       : 3
Format                                   : UTF-8
Codec ID                                 : S_TEXT/UTF8
Codec ID/Info                            : UTF-8 Plain Text
Duration                                 : 1 h 27 min
Bit rate                                 : 61 b/s
Count of elements                        : 1542
Stream size                              : 39.3 KiB (0%)
Language                                 : English
Default                                  : Yes
Forced                                   : No

Menu
00:00:00.000                             : :Chapter 01
00:04:20.385                             : :Chapter 02
00:07:47.509                             : :Chapter 03
00:37:01.636                             : :Chapter 04
00:39:34.581                             : :Chapter 05
00:46:57.565                             : :Chapter 06
00:49:41.395                             : :Chapter 07
01:20:44.089                             : :Chapter 08
01:24:13.048                             : :Chapter 09
01:28:08.575                             : :Chapter 10

ab3454e91e7e229455d3b286537b72cc.png

[/url]21a146bbe2caf3721482bb193bb786d1.png

[/url]



                                                                                                                                                                                                        
                                                                                                                                                                                                                                                                                                                                                                                                                                                                                                                                                                                                                                                                                                                                                                                                                                                        
cae3ebbf4cb222252c6c6fc3640def6f.torrent (32.25 KB, 下载次数: 0)

回复

使用道具 举报

小黑屋|西西论坛

本网站所有资源来自网络,如无意中侵犯了您的权益,请发邮件至 [email protected],立即清除相关链接

GMT+8, 2021-6-15 02:52 , Processed in 0.068849 second(s), 17 queries .

Powered by Discuz! X3.2

© 2001-2013 Comsenz Inc.

快速回复 返回顶部 返回列表