西西论坛

 找回密码
 立即注册
搜索

情到深时/无悔的青春 Baby.Its.You.1983.1080p.BluRay.x264.FLAC.2.0-HANDJOB 11.60GB ...

[复制链接]
admin 发表于 5 天前 | 显示全部楼层 |阅读模式
情到深时/无悔的青春 Baby.Its.You.1983.1080p.BluRay.x264.FLAC.2.0-HANDJOB 11.60GB                                                                                                                                                                                                                                                                                                                                                                                                                                                                                                                                        -->
帖子完整标题:情到深时/无悔的青春 Baby.Its.You.1983.1080p.BluRay.x264.FLAC.2.0-HANDJOB 11.60GB



693584ddec9a00d8a35c6f4eafddbc22.jpg

[/url]

◎译  名 情到深时/无悔的青春/无悔青春
◎片  名 Baby, It's You
◎年  代 1983
◎产  地 美国
◎类  别 剧情 / 喜剧 / 爱情
◎语  言 英语
◎上映日期 1983-03-04(美国)
◎豆瓣评分 /10 from 0 users
◎豆瓣链接 
◎片  长 105 分钟
◎导  演 约翰·塞尔斯 John Sayles
◎编  剧 艾米·罗宾森 Amy Robinson / 约翰·塞尔斯 John Sayles
◎主  演 罗姗娜·阿奎特 Rosanna Arquette
       文森特·斯帕诺 Vincent Spano
       乔安娜·默林 Joanna Merlin
       马修·莫迪恩 Matthew Modine

◎标  签 美国 | 码一码 | 爱情 | RosannaArquette | 罗姗娜·阿奎特 | 4 | 西方 | 被忽视的片子

◎简  介

  John Sayles's first major studio film, with professional 35-millimeter cinematography and craftsmanlike if uninspired camera placement shoring up the Sayles virtues of empathetic characterization and relaxed, efficient screenplay construction. Rosanna Arquette is very good as a New Jersey girl whose greaser boyfriend looks much less desirable when she graduates from high school to a Seven Sisters college. Set in the mid-60s, the film's remembrances of teenage culture are warm without being dishonestly rosy, and the rock sound track is used to develop dramatic points as well as milk nostalgia. As a filmmaker, Sayles still seems more likable than incisive or original, but it's a likability with a certain brilliance. With Vincent Spano and Joanna Merlin.
Video
ID                                       : 1
Format                                   : AVC
Format/Info                              : Advanced Video Codec
Format profile                           :
Format settings                          : CABAC / 4 Ref Frames
Format settings, CABAC                   : Yes
Format settings, Reference frames        : 4 frames
Codec ID                                 : V_MPEG4/ISO/AVC
Duration                                 : 1 h 45 min
Bit rate                                 : 15.4 Mb/s
Width                                    : 1 918 pixels
Height                                   : 1 080 pixels
Display aspect ratio                     : 16:9
Frame rate mode                          : Constant
Frame rate                               : 23.976 (24000/1001/189150) FPS
Color space                              : YUV
Chroma subsampling                       : 4:2:0
Bit depth                                : 8 bits
Scan type                                : Progressive
Bits/(Pixel*Frame)                       : 0.310
Stream size                              : 11.3 GiB (98%)
Writing library                          : x264 core 157 r2935 545de2f
Encoding settings                        : cabac=1 / ref=4 / deblock=1:-3:-3 / analyse=0x3:0x133 / me=umh / subme=10 / psy=1 / psy_rd=1.00:0.00 / mixed_ref=1 / me_range=32 / chroma_me=1 / trellis=2 / 8x8dct=1 / cqm=0 / deadzone=21,11 / fast_pskip=0 / chroma_qp_offset=-2 / threads=18 / lookahead_threads=4 / sliced_threads=0 / nr=0 / decimate=0 / interlaced=0 / bluray_compat=0 / constrained_intra=0 / bframes=16 / b_pyramid=2 / b_adapt=2 / b_bias=0 / direct=3 / weightb=1 / open_gop=0 / weightp=1 / keyint=240 / keyint_min=24 / scenecut=40 / intra_refresh=0 / rc_lookahead=60 / rc=crf / mbtree=0 / crf=19.8 / qcomp=0.60 / qpmin=0 / qpmax=69 / qpstep=4 / vbv_maxrate=62500 / vbv_bufsize=78125 / crf_max=0.0 / nal_hrd=none / filler=0 / ip_ratio=1.40 / pb_ratio=1.30 / aq=2:1.00
Default                                  : Yes
Forced                                   : No
Color range                              : Limited
Color primaries                          : BT.709
Transfer characteristics                 : BT.709
Matrix coefficients                      : BT.709

Audio
ID                                       : 2
Format                                   : FLAC
Format/Info                              : Free Lossless Audio Codec
Codec ID                                 : A_FLAC
Duration                                 : 1 h 45 min
Bit rate mode                            : Variable
Bit rate                                 : 340 kb/s
Channel(s)                               : 2 channels
Sampling rate                            : 48.0 kHz
Frame rate                               : 11.719 FPS (4096 SPF)
Bit depth                                : 16 bits
Compression mode                         : Lossless
Stream size                              : 256 MiB (2%)
Writing library                          : libFLAC 1.2.1 (UTC 2007-09-17)
Language                                 : English
Default                                  : Yes
Forced                                   : No

Text
ID                                       : 3
Format                                   : UTF-8
Codec ID                                 : S_TEXT/UTF8
Codec ID/Info                            : UTF-8 Plain Text
Duration                                 : 1 h 44 min
Bit rate                                 : 63 b/s
Count of elements                        : 1847
Stream size                              : 48.8 KiB (0%)
Title                                    : English SDH
Language                                 : English
Default                                  : No
Forced                                   : No

Menu #1
00:00:00.000                             : :Chapter 1
00:00:10.928                             : :Chapter 2
00:09:21.394                             : :Chapter 3
00:19:28.459                             : :Chapter 4
00:30:41.340                             : :Chapter 5
00:41:12.470                             : :Chapter 6
00:54:04.616                             : :Chapter 7
01:10:21.217                             : :Chapter 8
01:27:07.013                             : :Chapter 9
01:45:12.264                             : :Chapter 10

Menu #2
00:00:00.000                             : en:Titles
00:01:09.903                             : en:The Guy From St. Anthonys\'s
00:03:19.240                             : en:The Audition
00:05:38.671                             : en:The Italian Sheik
00:09:56.262                             : en:Kitten and the Rat
00:13:25.471                             : en:Joey D\'s
00:19:16.530                             : en:The Kiss
00:22:03.030                             : en:Not a Student
00:24:33.889                             : en:Rumors
00:26:53.153                             : en:Half a Brain
00:29:21.134                             : en:The Play
00:33:26.421                             : en:The Kidnap
00:37:03.262                             : en:The Shore
00:39:54.100                             : en:Strangers in the Night
00:42:33.467                             : enlanning the Prom
00:47:22.047                             : en:Accepted to Sarah Lawrence
00:49:35.347                             : en:The Prom
00:51:32.964                             : en:The Tuxedo Store
00:53:53.480                             : en:Jody\'s Guilt
00:56:44.442                             : en:Sarah Lawrence
00:59:02.580                             : en:Getting Settled
01:02:21.446                             : en:The Mixer
01:03:48.366                             : enlaying Pool
01:04:46.299                             : en:Jill Gets Drunk
01:10:10.372                             : en:Miami
01:11:57.396                             : en:The Sheik and Jill in Miami
01:20:21.775                             : en:Back to Sarah Lawrence
01:22:05.879                             : en:Jill and Steve
01:24:38.907                             : en:The Dance at Sarah Lawrence
01:25:46.266                             : enoesn\'t Work Anymore
01:26:56.211                             : en:Jill in Acting Class
01:27:32.747                             : en:Albert Gets Fired
01:30:30.049                             : en:Steve Can\'t Go to the Senior Dance
01:32:03.976                             : en:The Sheik Comes to Sarah Lawrence
01:39:41.100                             : en:The Senior Dance
01:41:54.233                             : en:The End (credits)

027812367e6b59650663d1e5f56e0305.png

[/url]cdaf3c966ee0a32c2e1b8db1991c8c58.png

[/url]63fa5159f8560f500ab54cdce8b38a3b.png

[/url]



                                                                                                                                                                                                        
                                                                                                                                                                                                                                                                                                                                                                                                                                                                                                                                                                                                                                                                                                                                                                                                                                                        
bd3bf28e8af9091666ca319f343a0724.torrent (58.6 KB, 下载次数: 0)

回复

使用道具 举报

小黑屋|西西论坛

本网站所有资源来自网络,如无意中侵犯了您的权益,请发邮件至 [email protected],立即清除相关链接

GMT+8, 2021-6-15 02:06 , Processed in 0.063612 second(s), 17 queries .

Powered by Discuz! X3.2

© 2001-2013 Comsenz Inc.

快速回复 返回顶部 返回列表