西西论坛

 找回密码
 立即注册
搜索

幻想家 The.Daydreamer.1966.1080p.BluRay.x264.FLAC.2.0-NOGRP 11.69GB

[复制链接]
admin 发表于 5 天前 | 显示全部楼层 |阅读模式
幻想家 The.Daydreamer.1966.1080p.BluRay.x264.FLAC.2.0-NOGRP 11.69GB                                                                                                                                                                                                                                                                                                                                                                                                                                                                                                                                        -->
帖子完整标题:幻想家 The.Daydreamer.1966.1080p.BluRay.x264.FLAC.2.0-NOGRP 11.69GB



ceed5add744d1cd1f9f16a7df9ea1864.jpg

[/url]

◎译  名 幻想家
◎片  名 The Daydreamer
◎年  代 1966
◎产  地 美国
◎类  别 动画 / 家庭 / 奇幻
◎语  言 英语
◎上映日期 
◎豆瓣评分 /10 from 0 users
◎豆瓣链接 
◎片  长 101 分钟
◎导  演 朱尔斯·巴斯 Jules Bass
◎编  剧 安徒生 Hans Christian Andersen / Romeo Muller / 小亚瑟·兰金 Arthur Rankin Jr.
◎主  演 维托·埔柱 Victor Borge
       Robert Harter
       Larry D. Mann
       Paul O'Keefe
       西里尔·里查德 Cyril Ritchard
       特里-托马斯 Terry-Thomas
       海莉·米尔斯 Hayley Mills
       罗伯特·顾雷特 Robert Goulet
       塔卢拉赫·班克黑德 Tallulah Bankhead
       雷·博尔格 Ray Bolger
       伯尔·艾弗斯 Burl Ives
       早川雪洲 Sessue Hayakawa
       杰克·吉尔福德 Jack Gilford
       帕蒂·杜克 Patty Duke
       波利斯·卡洛夫 Boris Karloff
       玛格丽特·哈米尔顿 Margaret Hamilton
       埃德·温 Ed Wynn

◎标  签 定格动画 | 美国电影 | 安徒生 | 童话 | 成长 | 美国 | 儿童 | 电影

◎简  介

  An anthology of fairy tales by Hans Christian Andersen: "The Little Mermaid," "The Emperor's New Clothes," "Thumbelina" and "The Garden of Paradise
Video
ID                                       : 1
Format                                   : AVC
Format/Info                              : Advanced Video Codec
Format profile                           :
Format settings                          : CABAC / 4 Ref Frames
Format settings, CABAC                   : Yes
Format settings, Reference frames        : 4 frames
Codec ID                                 : V_MPEG4/ISO/AVC
Duration                                 : 1 h 38 min
Bit rate mode                            : Variable
Bit rate                                 : 16.4 Mb/s
Maximum bit rate                         : 62.5 Mb/s
Width                                    : 1 440 pixels
Height                                   : 1 080 pixels
Display aspect ratio                     : 4:3
Frame rate mode                          : Constant
Frame rate                               : 24.000 FPS
Standard                                 : Component
Color space                              : YUV
Chroma subsampling                       : 4:2:0
Bit depth                                : 8 bits
Scan type                                : Progressive
Bits/(Pixel*Frame)                       : 0.440
Stream size                              : 11.3 GiB (97%)
Writing library                          : x264 core 155
Encoding settings                        : cabac=1 / ref=5 / deblock=1:-3:-3 / analyse=0x3:0x133 / me=umh / subme=11 / psy=1 / psy_rd=1.00:0.00 / mixed_ref=1 / me_range=48 / chroma_me=1 / trellis=2 / 8x8dct=1 / cqm=1 / deadzone=21,11 / fast_pskip=0 / chroma_qp_offset=-2 / threads=34 / lookahead_threads=8 / sliced_threads=0 / slices=4 / nr=0 / decimate=0 / interlaced=0 / minigop=1 / stitchable=1 / constrained_intra=0 / bframes=16 / b_pyramid=1 / b_adapt=2 / b_bias=0 / direct=3 / weightb=1 / open_gop=0 / weightp=2 / keyint=250 / keyint_min=1 / scenecut=40 / intra_refresh=0 / rc_lookahead=250 / rc=crf / mbtree=0 / crf=19.0 / qcomp=0.60 / qpmin=3 / qpmax=69 / qpstep=4 / vbv_maxrate=62500 / vbv_bufsize=78127 / crf_max=51.0 / nal_hrd=vbr / filler=0 / ip_ratio=1.40 / pb_ratio=1.30 / aq=3:0.80
Language                                 : English
Default                                  : Yes
Forced                                   : No
Color range                              : Limited
Color primaries                          : BT.709
Transfer characteristics                 : BT.709
Matrix coefficients                      : BT.709

Audio #1
ID                                       : 2
Format                                   : FLAC
Format/Info                              : Free Lossless Audio Codec
Codec ID                                 : A_FLAC
Duration                                 : 1 h 38 min
Bit rate mode                            : Variable
Bit rate                                 : 322 kb/s
Channel(s)                               : 2 channels
Channel layout                           : L R
Sampling rate                            : 48.0 kHz
Frame rate                               : 10.417 FPS (4608 SPF)
Bit depth                                : 16 bits
Compression mode                         : Lossless
Delay relative to video                  : 92 ms
Stream size                              : 228 MiB (2%)
Title                                    : Original Mono Audio / FLAC Audio / 2.0 / 48 kHz / 322 kbps / 16-bit
Writing library                          : Lavc58.91.100 flac
Language                                 : English
Default                                  : Yes
Forced                                   : No

Audio #2
ID                                       : 3
ID in the original source medium         : 4353 (0x1101)
Format                                   : AC-3
Format/Info                              : Audio Coding 3
Commercial name                          : Dolby Digital
Codec ID                                 : A_AC3
Duration                                 : 1 h 38 min
Bit rate mode                            : Constant
Bit rate                                 : 192 kb/s
Channel(s)                               : 2 channels
Channel layout                           : L R
Sampling rate                            : 48.0 kHz
Frame rate                               : 31.250 FPS (1536 SPF)
Compression mode                         : Lossy
Delay relative to video                  : 28 ms
Stream size                              : 136 MiB (1%)
Title                                    : Commentary by Rankin/Bass Historian & Author Rick Goldschmidt with Film Historian Lee Gambin
Language                                 : English
Service kind                             : Complete Main
Default                                  : No
Forced                                   : No
Original source medium                   : Blu-ray

Text #1
ID                                       : 4
Format                                   : PGS
Muxing mode                              : zlib
Codec ID                                 : S_HDMV/PGS
Codec ID/Info                            : Picture based subtitle format used on BDs/HD-DVDs
Duration                                 : 1 h 38 min
Bit rate                                 : 30.1 kb/s
Count of elements                        : 3136
Stream size                              : 21.1 MiB (0%)
Title                                    : Image
Language                                 : English
Default                                  : No
Forced                                   : No

Text #2
ID                                       : 5
Format                                   : UTF-8
Codec ID                                 : S_TEXT/UTF8
Codec ID/Info                            : UTF-8 Plain Text
Duration                                 : 1 h 38 min
Bit rate                                 : 59 b/s
Count of elements                        : 1568
Stream size                              : 42.8 KiB (0%)
Title                                    : Text
Language                                 : English
Default                                  : No
Forced                                   : No

Menu
00:00:00.000                             : en:1. Main Titles
00:03:34.666                             : en:2. Chris and Papa
00:10:29.666                             : en:3. Perilous Voyage
00:15:25.791                             : en:4. The Haunted Sea
00:19:45.291                             : en:5. Sea Witch
00:23:57.666                             : en:6. Joy and Tears
00:32:14.916                             : en:7. The Search Begins
00:36:42.083                             : en:8. A Fitting Song
00:42:26.416                             : en:9. His Majesty Commands
00:47:02.541                             : en:10. Fruit of the Loom
00:52:05.916                             : en:11. Out of the Frying Pan
00:58:28.166                             : en:12. Like Son, Like Father
01:03:18.583                             : en:13. Sailing Again
01:07:53.750                             : en:14. The Rat
01:11:46.958                             : en:15. Isn\'t It Cozy Here?
01:16:24.000                             : en:16. Two Gardens of Paradise
01:21:02.625                             : en:17. One Last Chance
01:26:54.416                             : en:18. A High Price
01:32:47.041                             : en:19. And They Lived...
01:35:47.541                             : en:20. End Credits

6d479153d8e2e46d69a0f8c1149d1ae5.png

[/url]37ad96998e9daa4c4e9f78829f884a32.png

[/url]8c86f4e33a3d524e37f65c795bced541.png

[/url]



                                                                                                                                                                                                        
                                                                                                                                                                                                                                                                                                                                                                                                                                                                                                                                                                                                                                                                                                                                                                                                                                                        
c294503bd2acb6c6ed50839bfdfe891b.torrent (59.09 KB, 下载次数: 0)

回复

使用道具 举报

小黑屋|西西论坛

本网站所有资源来自网络,如无意中侵犯了您的权益,请发邮件至 [email protected],立即清除相关链接

GMT+8, 2021-6-15 01:06 , Processed in 0.067422 second(s), 17 queries .

Powered by Discuz! X3.2

© 2001-2013 Comsenz Inc.

快速回复 返回顶部 返回列表