西西论坛

 找回密码
 立即注册
搜索

黑热 Black.Heat.1976.1080p.BluRay.x264.FLAC2.0-HANDJOB 8.01GB

[复制链接]
admin 发表于 5 天前 | 显示全部楼层 |阅读模式
黑热 Black.Heat.1976.1080p.BluRay.x264.FLAC2.0-HANDJOB 8.01GB                                                                                                                                                                                                                                                                                                                                                                                                                                                                                                                                        -->
帖子完整标题:黑热 Black.Heat.1976.1080p.BluRay.x264.FLAC2.0-HANDJOB 8.01GB



2866a64a162943788d1a46f4f5ed5ed1.jpg

[/url]

◎译  名 黑热/Girl's Hotel/The Murder Gang
◎片  名 Black Heat
◎年  代 1976
◎产  地 美国
◎类  别 剧情 / 动作 / 犯罪
◎语  言 英语
◎上映日期 1976-06-04(美国纽约)
◎豆瓣评分 /10 from 0 users
◎豆瓣链接 
◎片  长 USA: 94 分钟
◎导  演 阿尔·亚当森 Al Adamson
◎主  演 蒂莫西·布朗 Timothy Brown
       拉斯·坦布林 Russ Tamblyn
       阿尔·亚当森 Al Adamson
       雷吉娜·卡罗尔 Regina Carrol
       Tanya Boyd

◎标  签 动作 | 美国 | 犯罪

◎简  介

  暂无相关剧情介绍
Video
ID                                       : 1
Format                                   : AVC
Format/Info                              : Advanced Video Codec
Format profile                           :
Format settings                          : CABAC / 4 Ref Frames
Format settings, CABAC                   : Yes
Format settings, Reference frames        : 4 frames
Codec ID                                 : V_MPEG4/ISO/AVC
Duration                                 : 1 h 34 min
Bit rate                                 : 11.8 Mb/s
Width                                    : 1 920 pixels
Height                                   : 1 040 pixels
Display aspect ratio                     : 1.85:1
Frame rate mode                          : Constant
Frame rate                               : 23.976 (24000/1001/189150) FPS
Color space                              : YUV
Chroma subsampling                       : 4:2:0
Bit depth                                : 8 bits
Scan type                                : Progressive
Bits/(Pixel*Frame)                       : 0.247
Stream size                              : 7.79 GiB (97%)
Writing library                          : x264 core 157 r2935 545de2f
Encoding settings                        : cabac=1 / ref=4 / deblock=1:-3:-3 / analyse=0x3:0x133 / me=umh / subme=10 / psy=1 / psy_rd=1.00:0.00 / mixed_ref=1 / me_range=32 / chroma_me=1 / trellis=2 / 8x8dct=1 / cqm=0 / deadzone=21,11 / fast_pskip=0 / chroma_qp_offset=-2 / threads=32 / lookahead_threads=8 / sliced_threads=0 / nr=0 / decimate=0 / interlaced=0 / bluray_compat=0 / constrained_intra=0 / bframes=16 / b_pyramid=2 / b_adapt=2 / b_bias=0 / direct=3 / weightb=1 / open_gop=0 / weightp=2 / keyint=240 / keyint_min=24 / scenecut=40 / intra_refresh=0 / rc_lookahead=60 / rc=crf / mbtree=0 / crf=21.5 / qcomp=0.60 / qpmin=0 / qpmax=69 / qpstep=4 / vbv_maxrate=62500 / vbv_bufsize=78125 / crf_max=0.0 / nal_hrd=none / filler=0 / ip_ratio=1.40 / pb_ratio=1.30 / aq=2:1.00
Default                                  : Yes
Forced                                   : No
Color range                              : Limited
Color primaries                          : BT.709
Transfer characteristics                 : BT.709
Matrix coefficients                      : BT.709

Audio #1
ID                                       : 2
Format                                   : FLAC
Format/Info                              : Free Lossless Audio Codec
Codec ID                                 : A_FLAC
Duration                                 : 1 h 34 min
Bit rate mode                            : Variable
Bit rate                                 : 257 kb/s
Channel(s)                               : 2 channels
Sampling rate                            : 48.0 kHz
Frame rate                               : 11.719 FPS (4096 SPF)
Bit depth                                : 16 bits
Compression mode                         : Lossless
Stream size                              : 174 MiB (2%)
Writing library                          : libFLAC 1.2.1 (UTC 2007-09-17)
Language                                 : English
Default                                  : Yes
Forced                                   : No

Audio #2
ID                                       : 3
Format                                   : AAC LC
Format/Info                              : Advanced Audio Codec Low Complexity
Codec ID                                 : A_AAC-2
Duration                                 : 1 h 34 min
Bit rate                                 : 62.8 kb/s
Channel(s)                               : 2 channels
Channel layout                           : L R
Sampling rate                            : 48.0 kHz
Frame rate                               : 46.875 FPS (1024 SPF)
Compression mode                         : Lossy
Stream size                              : 42.4 MiB (1%)
Title                                    : Commentary by Producer/Distributor Samuel M. Sherman
Language                                 : English
Default                                  : No
Forced                                   : No

Text
ID                                       : 4
Format                                   : UTF-8
Codec ID                                 : S_TEXT/UTF8
Codec ID/Info                            : UTF-8 Plain Text
Duration                                 : 1 h 33 min
Bit rate                                 : 47 b/s
Count of elements                        : 1350
Stream size                              : 32.7 KiB (0%)
Title                                    : SDH
Language                                 : English
Default                                  : No
Forced                                   : No

Menu
00:00:00.000                             : :Chapter 1
00:07:19.606                             : :Chapter 2
00:28:46.975                             : :Chapter 3
00:47:43.444                             : :Chapter 4
01:10:25.638                             : :Chapter 5
01:33:45.203                             : :Chapter 6

e07519fedfa6bf28301eff8ff72f631e.png

[/url]3c4e61560789c60d6dbb228a9d4a446c.png

[/url]



                                                                                                                                                                                                        
                                                                                                                                                                                                                                                                                                                                                                                                                                                                                                                                                                                                                                                                                                                                                                                                                                                        
01721b46c2f9e91053f02ef8808335cc.torrent (40.65 KB, 下载次数: 0)

回复

使用道具 举报

小黑屋|西西论坛

本网站所有资源来自网络,如无意中侵犯了您的权益,请发邮件至 [email protected],立即清除相关链接

GMT+8, 2021-6-15 02:35 , Processed in 0.061997 second(s), 17 queries .

Powered by Discuz! X3.2

© 2001-2013 Comsenz Inc.

快速回复 返回顶部 返回列表