西西论坛

 找回密码
 立即注册
搜索

桃色交易/不情之请 Indecent.Proposal.1993.PROPER.1080p.BluRay.x264-GAZER 15.87GB ...

[复制链接]
admin 发表于 5 天前 | 显示全部楼层 |阅读模式
桃色交易/不情之请 Indecent.Proposal.1993.PROPER.1080p.BluRay.x264-GAZER 15.87GB                                                                                                                                                                                                                                                                                                                                                                                                                                                                                                                                        -->
帖子完整标题:桃色交易/不情之请 Indecent.Proposal.1993.PROPER.1080p.BluRay.x264-GAZER 15.87GB



3d9b319759f29643555fbafd9bfde76e.jpg

[/url]

◎译  名 桃色交易/不情之请/不道德的交易
◎片  名 Indecent Proposal
◎年  代 1993
◎产  地 美国
◎类  别 剧情 / 爱情
◎语  言 英语
◎上映日期 1993-04-07
◎豆瓣评分 7.4/10 from 15426 users
◎豆瓣链接 
◎片  长 117 分钟
◎导  演 阿德里安·莱恩 Adrian Lyne
◎编  剧 艾米·霍尔登·琼斯 Amy Holden Jones / 杰克·恩格尔哈德 Jack Engelhard
◎主  演 罗伯特·雷德福 Robert Redford
       黛米·摩尔 Demi Moore
       伍迪·哈里森 Woody Harrelson
       奥利弗·普莱特 Oliver Platt
       比利·鲍伯·松顿 Billy Bob Thornton
       艾伦·D·柏温 Alan D. Purwin
       卢之梅 Chi Muoi Lo

◎标  签 爱情 | 美国 | 人性 | 美国电影 | 剧情 | DemiMoore | 情感 | 1993

◎简  介

  戴维(伍迪·哈里森 Woody Harrelso 饰)和黛安娜(黛米·摩尔 Demi Moor 饰)是一对感情很好的夫妻,两人事业成功,生活幸福,但经济萧条的到来使两人工作每况愈下,甚至连住房都无法操持。他们不甘以失败,下决心去赌城一搏。开始时,他们运气极好,但很快,两人就输光了所有的钱。这时,一位年老英俊的百万富翁盖奇(罗伯特·雷德福 Robert Redfor 饰)提出帮他们,但条件是用100万换取与黛安娜共度一夜,终于,金钱的诱惑力战胜了一切,夫妇两人立下了字据,做了桃色交易。两人回到家中约定永不提此事,但事与愿违,两人感情出现裂痕。这时,盖奇又进入了他们的生活,热烈地追求,戴维一气之下离家出走。最终这一对曾经的爱人是否能够既往不咎?而百万富翁究竟是真心爱着戴安娜,还是另有其他目的?
Video
ID                                       : 1
Format                                   : AVC
Format/Info                              : Advanced Video Codec
Format profile                           :
Format settings                          : CABAC / 4 Ref Frames
Format settings, CABAC                   : Yes
Format settings, Reference frames        : 4 frames
Codec ID                                 : V_MPEG4/ISO/AVC
Duration                                 : 1 h 56 min
Bit rate                                 : 15.3 Mb/s
Width                                    : 1 920 pixels
Height                                   : 1 080 pixels
Display aspect ratio                     : 16:9
Frame rate mode                          : Constant
Frame rate                               : 23.976 (24000/1001/189150) FPS
Color space                              : YUV
Chroma subsampling                       : 4:2:0
Bit depth                                : 8 bits
Scan type                                : Progressive
Bits/(Pixel*Frame)                       : 0.308
Stream size                              : 12.5 GiB (79%)
Writing library                          : x264 core 163 r3059 b684ebe
Encoding settings                        : cabac=1 / ref=4 / deblock=1:-3:-3 / analyse=0x3:0x133 / me=umh / subme=10 / psy=1 / psy_rd=1.20:0.00 / mixed_ref=1 / me_range=24 / chroma_me=1 / trellis=2 / 8x8dct=1 / cqm=0 / deadzone=21,11 / fast_pskip=0 / chroma_qp_offset=-2 / threads=24 / lookahead_threads=4 / sliced_threads=0 / nr=0 / decimate=0 / interlaced=0 / bluray_compat=0 / constrained_intra=0 / bframes=8 / b_pyramid=2 / b_adapt=2 / b_bias=0 / direct=3 / weightb=1 / open_gop=0 / weightp=2 / keyint=250 / keyint_min=23 / scenecut=40 / intra_refresh=0 / rc_lookahead=60 / rc=crf / mbtree=1 / crf=21.0 / qcomp=0.60 / qpmin=0 / qpmax=69 / qpstep=4 / ip_ratio=1.40 / aq=3:0.90
Default                                  : Yes
Forced                                   : No
Color range                              : Limited
Matrix coefficients                      : BT.709

Audio #1
ID                                       : 2
Format                                   : MLP FBA
Format/Info                              : Meridian Lossless Packing FBA
Commercial name                          : Dolby TrueHD
Codec ID                                 : A_TRUEHD
Duration                                 : 1 h 56 min
Bit rate mode                            : Variable
Bit rate                                 : 3 546 kb/s
Maximum bit rate                         : 4 608 kb/s
Channel(s)                               : 6 channels
Channel layout                           : L R C LFE Ls Rs
Sampling rate                            : 48.0 kHz
Frame rate                               : 1 200.000 FPS (40 SPF)
Compression mode                         : Lossless
Stream size                              : 2.90 GiB (18%)
Language                                 : English
Default                                  : Yes
Forced                                   : No

Audio #2
ID                                       : 3
Format                                   : AC-3
Format/Info                              : Audio Coding 3
Commercial name                          : Dolby Digital
Codec ID                                 : A_AC3
Duration                                 : 1 h 56 min
Bit rate mode                            : Constant
Bit rate                                 : 448 kb/s
Channel(s)                               : 6 channels
Channel layout                           : L R C LFE Ls Rs
Sampling rate                            : 48.0 kHz
Frame rate                               : 31.250 FPS (1536 SPF)
Compression mode                         : Lossy
Stream size                              : 375 MiB (2%)
Language                                 : English
Service kind                             : Complete Main
Default                                  : No
Forced                                   : No

Text #1
ID                                       : 4
Format                                   : PGS
Muxing mode                              : zlib
Codec ID                                 : S_HDMV/PGS
Codec ID/Info                            : Picture based subtitle format used on BDs/HD-DVDs
Duration                                 : 1 h 55 min
Bit rate                                 : 23.0 kb/s
Count of elements                        : 1846
Stream size                              : 19.0 MiB (0%)
Title                                    : SDH
Language                                 : English
Default                                  : No
Forced                                   : No

Text #2
ID                                       : 5
Format                                   : PGS
Muxing mode                              : zlib
Codec ID                                 : S_HDMV/PGS
Codec ID/Info                            : Picture based subtitle format used on BDs/HD-DVDs
Duration                                 : 1 h 50 min
Bit rate                                 : 20.3 kb/s
Count of elements                        : 1386
Stream size                              : 16.1 MiB (0%)
Language                                 : Danish
Default                                  : No
Forced                                   : No

Text #3
ID                                       : 6
Format                                   : PGS
Muxing mode                              : zlib
Codec ID                                 : S_HDMV/PGS
Codec ID/Info                            : Picture based subtitle format used on BDs/HD-DVDs
Duration                                 : 1 h 49 min
Bit rate                                 : 20.4 kb/s
Count of elements                        : 1668
Stream size                              : 16.0 MiB (0%)
Language                                 : Dutch
Default                                  : No
Forced                                   : No

Text #4
ID                                       : 7
Format                                   : PGS
Muxing mode                              : zlib
Codec ID                                 : S_HDMV/PGS
Codec ID/Info                            : Picture based subtitle format used on BDs/HD-DVDs
Duration                                 : 1 h 49 min
Bit rate                                 : 25.1 kb/s
Count of elements                        : 1784
Stream size                              : 19.7 MiB (0%)
Language                                 : Finnish
Default                                  : No
Forced                                   : No

Text #5
ID                                       : 8
Format                                   : PGS
Muxing mode                              : zlib
Codec ID                                 : S_HDMV/PGS
Codec ID/Info                            : Picture based subtitle format used on BDs/HD-DVDs
Duration                                 : 1 h 50 min
Bit rate                                 : 21.7 kb/s
Count of elements                        : 2156
Stream size                              : 17.1 MiB (0%)
Language                                 : French
Default                                  : No
Forced                                   : No

Text #6
ID                                       : 9
Format                                   : PGS
Muxing mode                              : zlib
Codec ID                                 : S_HDMV/PGS
Codec ID/Info                            : Picture based subtitle format used on BDs/HD-DVDs
Duration                                 : 1 h 50 min
Bit rate                                 : 24.7 kb/s
Count of elements                        : 1788
Stream size                              : 19.5 MiB (0%)
Language                                 : German
Default                                  : No
Forced                                   : No

Text #7
ID                                       : 10
Format                                   : PGS
Muxing mode                              : zlib
Codec ID                                 : S_HDMV/PGS
Codec ID/Info                            : Picture based subtitle format used on BDs/HD-DVDs
Duration                                 : 1 h 49 min
Bit rate                                 : 23.5 kb/s
Count of elements                        : 1783
Stream size                              : 18.5 MiB (0%)
Language                                 : Italian
Default                                  : No
Forced                                   : No

Text #8
ID                                       : 11
Format                                   : PGS
Muxing mode                              : zlib
Codec ID                                 : S_HDMV/PGS
Codec ID/Info                            : Picture based subtitle format used on BDs/HD-DVDs
Duration                                 : 1 h 50 min
Bit rate                                 : 18.5 kb/s
Count of elements                        : 1382
Stream size                              : 14.6 MiB (0%)
Language                                 : Norwegian
Default                                  : No
Forced                                   : No

Text #9
ID                                       : 12
Format                                   : PGS
Muxing mode                              : zlib
Codec ID                                 : S_HDMV/PGS
Codec ID/Info                            : Picture based subtitle format used on BDs/HD-DVDs
Duration                                 : 1 h 50 min
Bit rate                                 : 22.9 kb/s
Count of elements                        : 1781
Stream size                              : 18.1 MiB (0%)
Language                                 : Spanish
Default                                  : No
Forced                                   : No

Text #10
ID                                       : 13
Format                                   : PGS
Muxing mode                              : zlib
Codec ID                                 : S_HDMV/PGS
Codec ID/Info                            : Picture based subtitle format used on BDs/HD-DVDs
Duration                                 : 1 h 49 min
Bit rate                                 : 21.0 kb/s
Count of elements                        : 1508
Stream size                              : 16.5 MiB (0%)
Language                                 : Swedish
Default                                  : No
Forced                                   : No

Menu
00:00:00.000                             : Chapter 01
00:09:47.587                             : Chapter 02
00:22:05.533                             : Chapter 03
00:29:19.883                             : Chapter 04
00:37:20.196                             : Chapter 05
00:41:55.513                             : Chapter 06
00:45:01.908                             : Chapter 07
00:57:47.381                             : Chapter 08
01:07:26.751                             : Chapter 09
01:15:33.028                             : Chapter 10
01:21:57.246                             : Chapter 11
01:32:52.817                             : Chapter 12
01:38:18.309                             : Chapter 13
01:44:48.324                             : Chapter 14
01:48:56.447                             : Chapter 15
01:52:16.647                             : Chapter 16
01:56:55.634                             : Chapter 17

88c0c9407cda8100320e38c8e61459e8.jpg

[/url]



                                                                                                                                                                                                        
                                                                                                                                                                                                                                                                                                                                                                                                                                                                                                                                                                                                                                                                                                                                                                                                                                                        
63cb4ff80acae7b77d8a54229bf82fc7.torrent (80.21 KB, 下载次数: 0)

回复

使用道具 举报

小黑屋|西西论坛

本网站所有资源来自网络,如无意中侵犯了您的权益,请发邮件至 [email protected],立即清除相关链接

GMT+8, 2021-6-15 01:49 , Processed in 0.066500 second(s), 17 queries .

Powered by Discuz! X3.2

© 2001-2013 Comsenz Inc.

快速回复 返回顶部 返回列表