西西论坛

 找回密码
 立即注册
搜索

潘金蓮之前世今生 The.Reincarnation.of.Golden.Lotus.1989.CHINESE.1080p.BluRay.x26 ...

[复制链接]
admin 发表于 5 天前 | 显示全部楼层 |阅读模式
潘金蓮之前世今生 The.Reincarnation.of.Golden.Lotus.1989.CHINESE.1080p.BluRay.x264.FLAC.2                                                                                                                                                                                                                                                                                                                                                                                                                                                                                                                                        -->
帖子完整标题:潘金蓮之前世今生 The.Reincarnation.of.Golden.Lotus.1989.CHINESE.1080p.BluRay.x264.FLAC.2.0-WMD 9.32GB



b050e1c77d0630115c4157f32df38cbb.jpg

[/url]

◎译  名 潘金莲之前世今生/The Reincarnation of Golden Lotus
◎片  名 潘金蓮之前世今生
◎年  代 1989
◎产  地 中国香港
◎类  别 剧情 / 悬疑 / 奇幻
◎语  言 粤语
◎上映日期 1989-09-21(中国香港)
◎豆瓣评分 6.7/10 from 11233 users
◎豆瓣链接 
◎片  长 91分钟
◎导  演 罗卓瑶 Clara Law
◎编  剧 李碧华 Lilian Lee Pik-Wah
◎主  演 王祖贤 Joey Wong
       林俊贤 Wilson Lam
       曾志伟 Eric Tsang
       单立文 Pal Sinn
       谷峰 Feng Ku
       焦姣 Chiao Chiao
       吴青谋 Ching-Mau Ng
       张凤妮 Betsy Cheung

◎标  签 王祖贤 | 李碧华 | 香港 | 香港电影 | 爱情 | 1989 | 曾志伟 | 罗卓瑶

◎简  介

  千古第一淫妇潘金莲(王祖贤饰)身首异处,魂赴阴曹,却念念不忘报仇雪恨。过奈何桥之际推翻孟婆汤,纵身跳入轮回的未知。今世正值文革动乱,芭蕾舞团的翘楚单玉莲(王祖贤饰)惨遭团长强暴,下放农村造鞋厂。一心只求宁静生活,却一再被宿命折磨的可怜女子注定了一生的颠沛流离。由内陆辗转香江,生命中先后出现的3个男人武龙(林俊贤饰)、武汝大(曾志伟饰)、Simon(单立文饰)似乎都只是前世的梦影。凄苦命运是否仍要重演,身处现代的飘零女子是否仍将走上千年前的老路?所谓的报仇雪恨是否真能如愿?爱恨交织的不了情又将何去何从?
  
  1989年上映,改编自香江名笔李碧华的同名小说的《潘金莲之前世今》在小心延续了该作妖艳诡异又不乏深邃犀利风格的同时,不可避免加入了港片诸多商业元素。但在注重娱乐性的同时,也将焦点放在了对人性以及女性细腻心理的探索上。镜头语言丰富,画面亦幻亦真,两个不同时空的影像交织,使信息的传达更富感性色彩。值得一看。

◎获奖情况

  第9届香港电影金像奖 ?(1990)
  最佳新演员(提名) 单立文
Video
ID                                       : 1
Format                                   : AVC
Format/Info                              : Advanced Video Codec
Format profile                           :
Format settings                          : CABAC / 4 Ref Frames
Format settings, CABAC                   : Yes
Format settings, Reference frames        : 4 frames
Codec ID                                 : V_MPEG4/ISO/AVC
Duration                                 : 1 h 32 min
Bit rate                                 : 14.1 Mb/s
Width                                    : 1 920 pixels
Height                                   : 1 080 pixels
Display aspect ratio                     : 16:9
Frame rate mode                          : Constant
Frame rate                               : 24.000 FPS
Color space                              : YUV
Chroma subsampling                       : 4:2:0
Bit depth                                : 8 bits
Scan type                                : Progressive
Bits/(Pixel*Frame)                       : 0.283
Stream size                              : 9.10 GiB (98%)
Title                                    : The.reincarnation.of.Golden.Lotus.1989.1080p.BluRay.FLAC.2.0.x264-WMD
Writing library                          : x264 core 163 r3059+61M 6e67fcb devel [(8 & 10) X86_64]
Encoding settings                        : cabac=1 / ref=4 / deblock=1:-3:-3 / analyse=0x3:0x133 / me=umh / subme=10 / psy=1 / fade_compensate=0.00 / psy_rd=1.00:0.00 / mixed_ref=1 / me_range=32 / chroma_me=1 / trellis=2 / 8x8dct=1 / cqm=0 / deadzone=21,11 / fast_pskip=0 / chroma_qp_offset=-2 / threads=12 / lookahead_threads=1 / sliced_threads=0 / nr=0 / decimate=0 / interlaced=0 / bluray_compat=0 / constrained_intra=0 / fgo=0 / bframes=6 / b_pyramid=2 / b_adapt=2 / b_bias=0 / direct=3 / weightb=1 / open_gop=0 / weightp=2 / keyint=250 / keyint_min=24 / scenecut=40 / intra_refresh=0 / rc_lookahead=60 / rc=crf / mbtree=0 / crf=18.8000 / qcomp=0.60 / qpmin=0:0:0 / qpmax=69:69:69 / qpstep=4 / vbv_maxrate=62500 / vbv_bufsize=78125 / crf_max=0.0 / nal_hrd=none / filler=0 / ip_ratio=1.30 / pb_ratio=1.20 / aq=3:0.60 / aq-sensitivity=10.00 / aq-factor=1.00:1.00:1.00 / aq2=0 / aq3=0
Language                                 : Chinese
Default                                  : Yes
Forced                                   : No
Color range                              : Limited
Color primaries                          : BT.709
Matrix coefficients                      : BT.709

Audio
ID                                       : 2
Format                                   : FLAC
Format/Info                              : Free Lossless Audio Codec
Codec ID                                 : A_FLAC
Duration                                 : 1 h 32 min
Bit rate mode                            : Variable
Bit rate                                 : 328 kb/s
Channel(s)                               : 2 channels
Channel layout                           : L R
Sampling rate                            : 48.0 kHz
Frame rate                               : 11.719 FPS (4096 SPF)
Bit depth                                : 16 bits
Compression mode                         : Lossless
Stream size                              : 217 MiB (2%)
Title                                    : Cantonese & Mandarin (In Parts)
Writing library                          : libFLAC 1.3.3 (UTC 2019-08-04)
Language                                 : Chinese
Default                                  : Yes
Forced                                   : No

Text
ID                                       : 3
Format                                   : UTF-8
Codec ID                                 : S_TEXT/UTF8
Codec ID/Info                            : UTF-8 Plain Text
Duration                                 : 1 h 27 min
Bit rate                                 : 34 b/s
Count of elements                        : 839
Stream size                              : 22.0 KiB (0%)
Language                                 : English
Default                                  : Yes
Forced                                   : No

Menu
00:00:00.000                             : Chapter 01
00:05:59.333                             : Chapter 02
00:16:01.208                             : Chapter 03
00:25:06.125                             : Chapter 04
00:30:08.750                             : Chapter 05
00:38:37.958                             : Chapter 06
00:45:50.500                             : Chapter 07
00:52:42.958                             : Chapter 08
01:02:48.125                             : Chapter 09
01:10:33.750                             : Chapter 10
01:17:44.583                             : Chapter 11
01:27:09.625                             : Chapter 12

4118cf04465306c4241c585f4a8c9fae.png

[/url]c1688aa343576cec0bc8c2653292dc4b.png

[/url]8db1b240f925ddd7dcd32c556659e5ea.png

[/url]



                                                                                                                                                                                                        
                                                                                                                                                                                                                                                                                                                                                                                                                                                                                                                                                                                                                                                                                                                                                                                                                                                        
1a6f211da6b60b3110269b897015369e.torrent (47.25 KB, 下载次数: 0)

回复

使用道具 举报

小黑屋|西西论坛

本网站所有资源来自网络,如无意中侵犯了您的权益,请发邮件至 [email protected],立即清除相关链接

GMT+8, 2021-6-15 02:57 , Processed in 0.063094 second(s), 17 queries .

Powered by Discuz! X3.2

© 2001-2013 Comsenz Inc.

快速回复 返回顶部 返回列表