西西论坛

 找回密码
 立即注册
搜索

我爱你我爱你 Je.taime.je.taime.1968.FRENCH.1080p.BluRay.x264.AAC2.0-EbP 10.95GB ...

[复制链接]
admin 发表于 5 天前 | 显示全部楼层 |阅读模式
我爱你我爱你 Je.taime.je.taime.1968.FRENCH.1080p.BluRay.x264.AAC2.0-EbP 10.95GB                                                                                                                                                                                                                                                                                                                                                                                                                                                                                                                                        -->
帖子完整标题:我爱你我爱你 Je.taime.je.taime.1968.FRENCH.1080p.BluRay.x264.AAC2.0-EbP 10.95GB



71d20f7dd09bcd8680f02c96436162f5.jpg

[/url]

◎译  名 我爱你,我爱你
◎片  名 Je t'aime, je t'aime
◎年  代 1968
◎产  地 法国
◎类  别 剧情 / 科幻
◎语  言 法语
◎上映日期 1968-04-26
◎豆瓣评分 7.9/10 from 1849 users
◎豆瓣链接 
◎片  长 USA: 91 分钟
◎导  演 阿伦·雷乃 Alain Resnais
◎编  剧 Jacques Sternberg / 阿伦·雷乃 Alain Resnais
◎主  演 克洛德·里什 Claude Rich
       奥尔加.乔治斯 - 皮科 Olga Georges-Picot
       阿努克·费尔雅克 Anouk Ferjac
       阿兰·罗布-格里耶 Alain Robbe-Grillet
       Claire Duhamel

◎标  签 法国 | 科幻 | 阿伦·雷乃 | 阿伦·雷奈 | 法国电影 | 1960s | AlainResnais | 1968

◎简  介

  里德自杀未遂,两名男子前来造访,请他参加一个时空旅行的实验,看看他能否捕捉过去的某一刻。他跟一只已经被实验过的老鼠一起从一个无人的郊区送到某试验室,穿越时间,但迷失了方向。科学家们正为这个丢失的试验品发愁,关于他从前生活的点点滴滴却不断显现,其中一个似乎暗示他曾杀死他的女友。一切线索都指向他自杀的一瞬。而在现实中,里德的尸体出现在实验室的地下。

◎获奖情况

  第21届戛纳电影节 ?(1968)
  主竞赛单元金棕榈奖(提名) 阿伦·雷乃
Video
ID                                       : 1
Format                                   : AVC
Format/Info                              : Advanced Video Codec
Format profile                           :
Format settings                          : CABAC / 4 Ref Frames
Format settings, CABAC                   : Yes
Format settings, Reference frames        : 4 frames
Codec ID                                 : V_MPEG4/ISO/AVC
Duration                                 : 1 h 34 min
Bit rate                                 : 16.4 Mb/s
Width                                    : 1 792 pixels
Height                                   : 1 080 pixels
Display aspect ratio                     : 5:3
Frame rate mode                          : Constant
Frame rate                               : 23.976 (24000/1001/189150) FPS
Color space                              : YUV
Chroma subsampling                       : 4:2:0
Bit depth                                : 8 bits
Scan type                                : Progressive
Bits/(Pixel*Frame)                       : 0.353
Stream size                              : 10.9 GiB (99%)
Title                                    : Je t\'aime je t\'aime (1968)
Writing library                          : x264 core 148 r2665 a01e339
Encoding settings                        : cabac=1 / ref=4 / deblock=1:-3:-3 / analyse=0x3:0x133 / me=umh / subme=10 / psy=1 / psy_rd=1.15:0.00 / mixed_ref=1 / me_range=16 / chroma_me=1 / trellis=2 / 8x8dct=1 / cqm=0 / deadzone=21,11 / fast_pskip=0 / chroma_qp_offset=-2 / threads=12 / lookahead_threads=3 / sliced_threads=0 / nr=0 / decimate=0 / interlaced=0 / bluray_compat=0 / constrained_intra=0 / bframes=11 / b_pyramid=2 / b_adapt=2 / b_bias=0 / direct=3 / weightb=1 / open_gop=0 / weightp=2 / keyint=250 / keyint_min=23 / scenecut=40 / intra_refresh=0 / rc=crf / mbtree=0 / crf=19.3 / qcomp=0.60 / qpmin=0 / qpmax=69 / qpstep=4 / ip_ratio=1.40 / pb_ratio=1.30 / aq=3:0.70
Language                                 : French
Default                                  : Yes
Forced                                   : No

Audio
ID                                       : 2
Format                                   : AAC LC
Format/Info                              : Advanced Audio Codec Low Complexity
Codec ID                                 : A_AAC-2
Duration                                 : 1 h 34 min
Bit rate                                 : 132 kb/s
Channel(s)                               : 2 channels
Channel layout                           : L R
Sampling rate                            : 48.0 kHz
Frame rate                               : 46.875 FPS (1024 SPF)
Compression mode                         : Lossy
Delay relative to video                  : 20 ms
Stream size                              : 90.7 MiB (1%)
Title                                    : AAC LC 2.0 @ 132 Kbps
Language                                 : French
Default                                  : Yes
Forced                                   : No

Text #1
ID                                       : 3
Format                                   : UTF-8
Codec ID                                 : S_TEXT/UTF8
Codec ID/Info                            : UTF-8 Plain Text
Duration                                 : 1 h 32 min
Bit rate                                 : 44 b/s
Count of elements                        : 1126
Stream size                              : 30.4 KiB (0%)
Language                                 : English
Default                                  : No
Forced                                   : No

Text #2
ID                                       : 4
Format                                   : UTF-8
Codec ID                                 : S_TEXT/UTF8
Codec ID/Info                            : UTF-8 Plain Text
Duration                                 : 1 h 29 min
Bit rate                                 : 71 b/s
Count of elements                        : 1220
Stream size                              : 47.1 KiB (0%)
Language                                 : French
Default                                  : No
Forced                                   : No

Text #3
ID                                       : 5
Format                                   : UTF-8
Codec ID                                 : S_TEXT/UTF8
Codec ID/Info                            : UTF-8 Plain Text
Duration                                 : 1 h 31 min
Bit rate                                 : 98 b/s
Count of elements                        : 1220
Stream size                              : 65.9 KiB (0%)
Language                                 : Russian
Default                                  : No
Forced                                   : No

Menu
00:00:00.000                             : en:First Human Test
00:08:51.281                             : en:The Ideal Guinea Pig
00:17:35.930                             : en:Journey to the Past
00:28:25.370                             : en:Mouse on the Beach
00:40:15.913                             : en:Always Sad
00:50:12.676                             : en:Afraid and Terrified
01:00:48.645                             : en:Something Blurred
01:09:18.780                             : en:Nothing\'s Changed
01:18:54.313                             : enost in Time
01:27:33.832                             : en:Awakening

2eda80d953a2bca0e9b6509ace45b37c.png

[/url]0ebf6a45c24512dd5851199c77525146.png

[/url]b3aae0288e2d09e63eecb2d9a11c4c40.png

[/url]



                                                                                                                                                                                                        
                                                                                                                                                                                                                                                                                                                                                                                                                                                                                                                                                                                                                                                                                                                                                                                                                                                        
cad5dcd5a71295e98a7eb0d6814b81b7.torrent (55.37 KB, 下载次数: 0)

回复

使用道具 举报

小黑屋|西西论坛

本网站所有资源来自网络,如无意中侵犯了您的权益,请发邮件至 [email protected],立即清除相关链接

GMT+8, 2021-6-15 02:13 , Processed in 0.068036 second(s), 17 queries .

Powered by Discuz! X3.2

© 2001-2013 Comsenz Inc.

快速回复 返回顶部 返回列表