西西论坛

 找回密码
 立即注册
搜索

天才麻将少女 电影版 Saki.2017.JAPANESE.1080p.BluRay.x264.DTS-EDPH 8.10GB ... ...

[复制链接]
admin 发表于 5 天前 | 显示全部楼层 |阅读模式
天才麻将少女 电影版 Saki.2017.JAPANESE.1080p.BluRay.x264.DTS-EDPH 8.10GB                                                                                                                                                                                                                                                                                                                                                                                                                                                                                                                                        -->
帖子完整标题:天才麻将少女 电影版 Saki.2017.JAPANESE.1080p.BluRay.x264.DTS-EDPH 8.10GB



b8dee3c69509c625cabdd4302ee9c7e6.jpg

[/url]

◎译  名 天才麻将少女 电影版
◎片  名 咲 -Saki- 劇場版
◎年  代 2017
◎产  地 日本
◎类  别 剧情 / 运动
◎语  言 日语
◎上映日期 2017-02-03(日本)
◎豆瓣评分 5.3/10 from 1069 users
◎豆瓣链接 
◎片  长 109分钟
◎导  演 小沼雄一 Y?ichi Onuma
◎编  剧 森迅史 Hayashi Mori / 小林立 Ritz Kobayashi
◎主  演 滨边美波 Minami Hamabe
       浅川梨奈 Nana Asakawa
       广田爱佳 Aika Hirota
       古畑星夏 Seika Furuhata
       山田杏奈 Anna Yamada
       加村真美 Mami Kamura
       樋口柚子 Yuzu Higuchi
       星名美津纪 Mizuki Hoshina
       吉崎绫 Aya Yoshizaki
       武田玲奈 Rena Takeda
       冈本夏美 Natsumi Okamoto
       志水彩乃 ano
       大西亚玖璃 Aguri Ohnishi
       长泽茉里奈 Marina Nagasawa
       山地真理 Mari Yamachi
       永尾玛利亚 Mariya Nagao
       柴田杏花 Kyoka Shibata
       小篠恵奈 Ena Koshino
       金子理江 Rie Kaneko
       菊地麻衣 Mai Kikuchi
       玉城裕规 Yuki Tamaki
       佐野日向子 Hinako Sano
       夏菜 Natsuna
       长谷川朝晴 Tomoharu Hasegawa
       真岛优 Yu Mashima

◎标  签 日本 | 漫画改编 | 2017 | 麻将 | 剧情 | 漫改 | 校园 | 青春

◎简  介

  故事讲述21世纪有两位天才女高中生,降临在这个靠打麻将实力来左右人生的时代。一位是每一次都能够以正负0分没输没赢的方式打完牌局的少女宫永咲。另一位是在全国中学生麻将大赛个人组中夺冠的少女,经验数据系选手原村和。因某次偶然的相会,和被咲不在乎输赢的打法所击败,咲对和说出“我不喜欢麻将”这句话。和被这一句话刺激后,激起斗争心。另一方面为了咲追赶姐姐而加入和所在的学校麻将部,两位少女就此向麻将界的顶点进发。by:www.yakutv.cc
Video
ID                                       : 1
Format                                   : AVC
Format/Info                              : Advanced Video Codec
Format profile                           :
Format settings                          : CABAC / 4 Ref Frames
Format settings, CABAC                   : Yes
Format settings, Reference frames        : 4 frames
Codec ID                                 : V_MPEG4/ISO/AVC
Duration                                 : 1 h 43 min
Bit rate                                 : 9 702 kb/s
Width                                    : 1 920 pixels
Height                                   : 1 036 pixels
Display aspect ratio                     : 1.85:1
Frame rate mode                          : Constant
Frame rate                               : 23.976 (24000/1001/189150) FPS
Color space                              : YUV
Chroma subsampling                       : 4:2:0
Bit depth                                : 8 bits
Scan type                                : Progressive
Bits/(Pixel*Frame)                       : 0.203
Stream size                              : 7.01 GiB (87%)
Writing library                          : x264 core 161 r3027 4121277
Encoding settings                        : cabac=1 / ref=4 / deblock=1:-3:-3 / analyse=0x3:0x133 / me=umh / subme=11 / psy=1 / psy_rd=1.02:0.00 / mixed_ref=1 / me_range=32 / chroma_me=1 / trellis=2 / 8x8dct=1 / cqm=0 / deadzone=21,11 / fast_pskip=0 / chroma_qp_offset=-2 / threads=12 / lookahead_threads=3 / sliced_threads=0 / nr=0 / decimate=0 / interlaced=0 / bluray_compat=0 / constrained_intra=0 / bframes=16 / b_pyramid=2 / b_adapt=2 / b_bias=0 / direct=3 / weightb=1 / open_gop=0 / weightp=2 / keyint=250 / keyint_min=23 / scenecut=40 / intra_refresh=0 / rc_lookahead=250 / rc=crf / mbtree=0 / crf=17.8 / qcomp=0.65 / qpmin=0 / qpmax=69 / qpstep=4 / vbv_maxrate=62500 / vbv_bufsize=78125 / crf_max=0.0 / nal_hrd=none / filler=0 / ip_ratio=1.30 / pb_ratio=1.20 / aq=3:0.80
Default                                  : No
Forced                                   : No
Color range                              : Limited
Color primaries                          : BT.709
Matrix coefficients                      : BT.709

Audio
ID                                       : 2
Format                                   : DTS
Format/Info                              : Digital Theater Systems
Codec ID                                 : A_DTS
Duration                                 : 1 h 43 min
Bit rate mode                            : Constant
Bit rate                                 : 1 509 kb/s
Channel(s)                               : 6 channels
Channel layout                           : C L R Ls Rs LFE
Sampling rate                            : 48.0 kHz
Frame rate                               : 93.750 FPS (512 SPF)
Bit depth                                : 24 bits
Compression mode                         : Lossy
Stream size                              : 1.09 GiB (13%)
Language                                 : Japanese
Default                                  : No
Forced                                   : No

Text
ID                                       : 3
Format                                   : UTF-8
Codec ID                                 : S_TEXT/UTF8
Codec ID/Info                            : UTF-8 Plain Text
Duration                                 : 1 h 42 min
Bit rate                                 : 54 b/s
Count of elements                        : 1404
Stream size                              : 40.9 KiB (0%)
Language                                 : English
Default                                  : Yes
Forced                                   : No

Menu
00:00:00.000                             : en:Chapter 1
00:02:25.228                             : en:Chapter 2
00:03:42.847                             : en:Chapter 3
00:10:50.650                             : en:Chapter 4
00:12:56.609                             : en:Chapter 5
00:24:29.509                             : en:Chapter 6
00:29:55.502                             : en:Chapter 7
00:39:53.849                             : en:Chapter 8
00:48:47.257                             : en:Chapter 9
00:54:22.008                             : en:Chapter 10
01:07:16.741                             : en:Chapter 11
01:12:35.976                             : en:Chapter 12
01:25:29.916                             : en:Chapter 13
01:34:00.676                             : en:Chapter 14
01:39:35.970                             : en:Chapter 15

78833493c93e5352547ce2be22c806cf.png

[/url]1e06681b5210c9d09bfa68bd548e0b72.png

[/url]eab9e84d6d2d0d1a185868fae76bf578.png

[/url]



                                                                                                                                                                                                        
                                                                                                                                                                                                                                                                                                                                                                                                                                                                                                                                                                                                                                                                                                                                                                                                                                                        
5aaa13443410f1cfe1d97fb178272f40.torrent (41.1 KB, 下载次数: 0)

回复

使用道具 举报

小黑屋|西西论坛

本网站所有资源来自网络,如无意中侵犯了您的权益,请发邮件至 [email protected],立即清除相关链接

GMT+8, 2021-6-15 01:57 , Processed in 0.064130 second(s), 17 queries .

Powered by Discuz! X3.2

© 2001-2013 Comsenz Inc.

快速回复 返回顶部 返回列表